藍光電影網

 找回密碼
 立即注冊

QQ登錄

只需一步,快速開始

搜索
熱搜: 活動 交友 discuz
查看: 575|回復: 0
打印 上一主題 下一主題

[10bit.SDR] 美食總動員/五星級大鼠 Ratatouille.2007.2160p.BluRay.x265.10bit.SDR.TrueHD.7.1.Atmos-SWTYBLZ 15.41GB

[復制鏈接]

4萬

主題

4萬

帖子

4萬

積分

管理員

Rank: 9Rank: 9Rank: 9

積分
49311
跳轉到指定樓層
1#
發表于 2019-9-12 11:10:00 | 只看該作者 回帖獎勵 |倒序瀏覽 |閱讀模式


譯  名 美食總帶動 / 五星級大鼠(港) / 小鼠大廚 / 料理鼠王(臺) / 蔬菜雜燴
片  名 Ratatouille
年  代 2007
產  地 美國
類  別 笑劇 / 動畫 / 奇異
語  言 英語 / 法語
上映日期 2007-06-29(美國) / 2007-10-19(中國大陸)
IMDb評分8.0/10 from 589266 users
IMDb鏈接http://www.imdb.com/title/tt0382932
豆瓣評分 8.4/10 from 236163 users
豆瓣鏈接 https://movie.douban.com/subject/1793491/
片  長 111 分鐘
導  演 Brad Bird / Jan Pinkava
編  劇 Brad Bird / Jan Pinkava
主  演 Patton Oswalt
     Peter O'Toole
     Brad Garrett
     Ian Holm
     Lou Romano
     Brian Dennehy
     Peter Sohn
     Janeane Garofalo


標  簽 動畫 | 美國 | 笑劇 | pixar | 動畫片 | 美國電影 | 2007 | 皮克斯

簡  介

  小老鼠雷米在嗅覺方面有著無與倫比的天賦,不想過與渣滓堆為伴的生活,心胸成為五星大廚的胡想。
  一個偶然的機遇,他熟悉了古斯特餐廳的學徒林奎尼,這個倒霉的學徒素性害臊,在廚藝上更是沒有什么天賦,而且遭到餐廳大廚的排擠,行將被解雇。這一人一鼠結成了奇異的同盟:雷米奉獻自己極富締造力的大腦。操縱林奎尼前臺“表演”。
  在雷米的幫助下,林奎尼不單成為新的“天賦廚師”,獲得了美男同事的戀愛,還挫敗了大廚的詭計,成為古斯特餐廳的正當繼續人。突如起來的成功讓林奎尼有些手足無措,想擺脫自己的傀儡身份,把雷米趕出了廚房。
  古斯特餐廳的成功,引發了刻薄的美食批評家科隆的留意,預備一嘗林奎尼的技術,重新為餐廳評定星級;而不甘失利的前大廚,捋臂張拳,想要找到林奎尼一夜成名的奧秘。落空了雷米,林奎尼該若何面臨這些題目……

獲獎情況

  第80屆奧斯卡金像獎(2008)
  最好原創劇本(提名) 簡·皮克瓦 / 布拉德·伯德
  最好動畫長片 布拉德·伯德
  最好混音(提名) 蘭迪·湯姆 / Doc Kane / 邁克爾·斯曼外科
  最好音效剪輯(提名) 蘭迪·湯姆 / 邁克爾·席維斯
  最好原創配樂(提名) 邁克·吉亞奇諾

  第61屆英國電影學院獎(2008)
  電影獎 最好動畫片 布拉德·伯德

  第35屆動畫安妮獎(2008)
  最好動畫長片
  最好導演 布拉德·伯德
  最好編劇 布拉德·伯德
  最好配音 伊安·霍姆
  最好配音(提名) 詹妮安·加羅法洛 / 帕頓·奧斯瓦爾特
  最好配樂 邁克·吉亞奇諾
  最好分鏡 泰德·馬托特
  最好藝術指導 哈雷·杰斯普
  最好動畫腳色(提名) Michal Makarewicz
  最好腳色設想 Carter Goodrich
  最好動畫結果(提名) Gary Bruins / Jon Reisch

  第8屆美國電影學會獎(2007)
  年度佳片
  • Video
  • ID             : 1
  • Format           : HEVC
  • Format/Info          : High Efficiency Video Coding
  • Format profile         : Main <a href="/cdn-cgi/l/email-protection" class="__cf_email__" data-cfemail="1524255559203b24">[email protected]</a>@High
  • Codec ID           : V_MPEGH/ISO/HEVC
  • Duration           : 1 h 51 min
  • Bit rate           : 11.7 Mb/s
  • Width            : 3 840 pixels
  • Height           : 1 606 pixels
  • Display aspect ratio       : 2.40:1
  • Frame rate mode        : Constant
  • Frame rate           : 23.976 (24000/1001) FPS
  • Color space          : YUV
  • Chroma subsampling       : 4:2:0
  • Bit depth          : 10 bits
  • Bits/(Pixel*Frame)       : 0.079
  • Stream size          : 9.06 GiB (59%)
  • Title            : Ratatouille.2007.2160p.BluRay.x265.10bit.SDR.TrueHD.7.1.Atmos-SWTYBLZ
  • Writing library        : x265 3.0ed72af837053:[Windows][GCC 8.2.0][64 bit] 10bit
  • Encoding settings        : cpuid=1111039 / frame-threads=16 / numa-pools=44,44 / wpp / no-pmode / no-pme / no-psnr / no-ssim / log-level=2 / input-csp=1 / input-res=3840x1606 / interlace=0 / total-frames=159814 / level-idc=51 / high-tier=1 / uhd-bd=0 / ref=3 / no-allow-non-conformance / repeat-headers / annexb / aud / hrd / info / hash=0 / no-temporal-layers / no-open-gop / min-keyint=1 / keyint=24 / gop-lookahead=0 / bframes=6 / b-adapt=2 / b-pyramid / bframe-bias=0 / rc-lookahead=25 / lookahead-slices=4 / scenecut=40 / radl=0 / no-splice / no-intra-refresh / ctu=64 / min-cu-size=8 / no-rect / no-amp / max-tu-size=32 / tu-inter-depth=1 / tu-intra-depth=1 / limit-tu=0 / rdoq-level=0 / dynamic-rd=0.00 / no-ssim-rd / signhide / no-tskip / nr-intra=0 / nr-inter=0 / no-constrained-intra / strong-intra-smoothing / max-merge=2 / limit-refs=3 / no-limit-modes / me=1 / subme=2 / merange=57 / temporal-mvp / weightp / no-weightb / no-analyze-src-pics / deblock=1:1 / no-sao / no-sao-non-deblock / rd=3 / no-early-skip / rskip / no-fast-intra / no-tskip-fast / no-cu-lossless / no-b-intra / no-splitrd-skip / rdpenalty=0 / psy-rd=0.40 / psy-rdoq=0.00 / no-rd-refine / no-lossless / cbqpoffs=0 / crqpoffs=0 / rc=crf / crf=12.0 / qcomp=0.60 / qpstep=4 / stats-write=0 / stats-read=0 / vbv-maxrate=160000 / vbv-bufsize=160000 / vbv-init=0.9 / crf-max=0.0 / crf-min=0.0 / ipratio=1.40 / pbratio=1.30 / aq-mode=1 / aq-strength=0.40 / cutree / zone-count=0 / no-strict-cbr / qg-size=32 / no-rc-grain / qpmax=69 / qpmin=0 / no-const-vbv / sar=1 / overscan=0 / videoformat=5 / range=0 / colorprim=2 / transfer=2 / colormatrix=2 / chromaloc=0 / display-window=0 / max-cll=0,0 / min-luma=0 / max-luma=1023 / log2-max-poc-lsb=8 / vui-timing-info / vui-hrd-info / slices=1 / opt-qp-pps / opt-ref-list-length-pps / no-multi-pass-opt-rps / scenecut-bias=0.05 / no-opt-cu-delta-qp / no-aq-motion / no-hdr / no-hdr-opt / no-dhdr10-opt / no-idr-recovery-sei / analysis-reuse-level=5 / scale-factor=0 / refine-intra=0 / refine-inter=0 / refine-mv=0 / refine-ctu-distortion=0 / no-limit-sao / ctu-info=0 / no-lowpass-dct / refine-analysis-type=0 / copy-pic=1 / max-ausize-factor=1.0 / no-dynamic-refine / no-single-sei / no-hevc-aq / qp-adaptation-range=1.00
  • Default            : Yes
  • Forced           : No
  • Audio #1
  • ID             : 2
  • Format           : MLP FBA 16-ch
  • Format/Info          : Meridian Lossless Packing FBA with 16-channel presentation
  • Commercial name        : Dolby TrueHD with Dolby Atmos
  • Codec ID           : A_TRUEHD
  • Duration           : 1 h 51 min
  • Bit rate mode          : Variable
  • Bit rate           : 7 350 kb/s
  • Maximum bit rate         : 6 972 kb/s
  • Channel(s)           : 8 channels
  • Channel layout         : L R C LFE Ls Rs Lb Rb
  • Sampling rate          : 48.0 kHz
  • Frame rate           : 1 200.000 FPS (40 SPF)
  • Compression mode         : Lossless
  • Stream size          : 5.70 GiB (37%)
  • Title            : Ratatouille.2007.2160p.BluRay.x265.10bit.SDR.TrueHD.7.1.Atmos-SWTYBLZ
  • Language           : English
  • Default            : Yes
  • Forced           : No
  • Number of dynamic objects      : 13
  • Bed channel count        : 1 channel
  • Bed channel configuration      : LFE
  • Audio #2
  • ID             : 3
  • Format           : AC-3
  • Format/Info          : Audio Coding 3
  • Commercial name        : Dolby Digital
  • Codec ID           : A_AC3
  • Duration           : 1 h 51 min
  • Bit rate mode          : Constant
  • Bit rate           : 640 kb/s
  • Channel(s)           : 6 channels
  • Channel layout         : L R C LFE Ls Rs
  • Sampling rate          : 48.0 kHz
  • Frame rate           : 31.250 FPS (1536 SPF)
  • Bit depth          : 16 bits
  • Compression mode         : Lossy
  • Stream size          : 509 MiB (3%)
  • Title            : Ratatouille.2007.2160p.BluRay.x265.10bit.SDR.TrueHD.7.1.Atmos-SWTYBLZ
  • Language           : English
  • Service kind         : Complete Main
  • Default            : No
  • Forced           : No
  • Text #1
  • ID             : 4
  • Format           : UTF-8
  • Codec ID           : S_TEXT/UTF8
  • Codec ID/Info          : UTF-8 Plain Text
  • Duration           : 1 h 42 min
  • Bit rate           : 64 b/s
  • Count of elements        : 1328
  • Stream size          : 48.3 KiB (0%)
  • Title            : English-SRT
  • Language           : English
  • Default            : Yes
  • Forced           : No
  • Text #2
  • ID             : 5
  • Format           : PGS
  • Muxing mode          : zlib
  • Codec ID           : S_HDMV/PGS
  • Codec ID/Info          : Picture based subtitle format used on BDs/HD-DVDs
  • Duration           : 1 h 42 min
  • Bit rate           : 45.2 kb/s
  • Count of elements        : 3180
  • Stream size          : 33.0 MiB (0%)
  • Title            : English-PGS
  • Language           : English
  • Default            : No
  • Forced           : No
  • Text #3
  • ID             : 6
  • Format           : PGS
  • Muxing mode          : zlib
  • Codec ID           : S_HDMV/PGS
  • Codec ID/Info          : Picture based subtitle format used on BDs/HD-DVDs
  • Duration           : 1 h 42 min
  • Bit rate           : 39.8 kb/s
  • Count of elements        : 2600
  • Stream size          : 29.0 MiB (0%)
  • Title            : French-PGS
  • Language           : French
  • Default            : No
  • Forced           : No
  • Text #4
  • ID             : 7
  • Format           : PGS
  • Muxing mode          : zlib
  • Codec ID           : S_HDMV/PGS
  • Codec ID/Info          : Picture based subtitle format used on BDs/HD-DVDs
  • Duration           : 1 h 42 min
  • Bit rate           : 39.2 kb/s
  • Count of elements        : 2604
  • Stream size          : 28.6 MiB (0%)
  • Title            : Spanish-PGS
  • Language           : Spanish
  • Default            : No
  • Forced           : No
  • Menu
  • 00:00:00.000         : en:Chapter 01
  • 00:01:16.701         : en:Chapter 02
  • 00:06:30.223         : en:Chapter 03
  • 00:09:23.729         : en:Chapter 04
  • 00:10:58.532         : en:Chapter 05
  • 00:13:31.519         : en:Chapter 06
  • 00:17:40.851         : en:Chapter 07
  • 00:19:38.343         : en:Chapter 08
  • 00:24:49.154         : en:Chapter 09
  • 00:28:56.067         : en:Chapter 10
  • 00:33:05.775         : en:Chapter 11
  • 00:38:14.250         : en:Chapter 12
  • 00:40:33.722         : en:Chapter 13
  • 00:44:12.066         : en:Chapter 14
  • 00:47:00.108         : en:Chapter 15
  • 00:51:28.502         : en:Chapter 16
  • 00:57:03.002         : en:Chapter 17
  • 00:59:33.152         : en:Chapter 18
  • 01:00:54.359         : en:Chapter 19
  • 01:07:20.578         : en:Chapter 20
  • 01:11:26.490         : en:Chapter 21
  • 01:15:29.066         : en:Chapter 22
  • 01:19:25.927         : en:Chapter 23
  • 01:23:30.964         : en:Chapter 24
  • 01:25:35.296         : en:Chapter 25
  • 01:28:19.168         : en:Chapter 26
  • 01:32:39.595         : en:Chapter 27
  • 01:35:41.944         : en:Chapter 28
  • 01:38:50.341         : en:Chapter 29
  • 01:40:55.507         : en:Chapter 30
  • 01:42:59.798         : en:Chapter 31















分享到:  QQ好友和群QQ好友和群
收藏收藏
字幕下載網站---點這里進入
回復

使用道具 舉報

您需要登錄后才可以回帖 登錄 | 立即注冊

本版積分規則

QQ|Archiver|手機版|小黑屋|藍光電影網

GMT+8, 2019-12-11 04:53 , Processed in 0.051678 second(s), 20 queries .

Powered by Discuz! X3.4

© 2001-2017 Comsenz Inc.

快速回復 返回頂部 返回列表
中原风釆22选5走势图