藍光電影網

 找回密碼
 立即注冊

QQ登錄

只需一步,快速開始

搜索
熱搜: 活動 交友 discuz
查看: 531|回復: 0
打印 上一主題 下一主題

[8bit.SDR] [8bit.SDR]賽車總動員2/3D反斗車王2 Cars.2.2011.2160p.BluRay.x264.8bit.SDR.TrueHD.7.1.Atmos-SWTYBLZ 29.81GB

[復制鏈接]

4萬

主題

4萬

帖子

4萬

積分

管理員

Rank: 9Rank: 9Rank: 9

積分
48476
跳轉到指定樓層
1#
發表于 2019-9-12 11:04:30 | 只看該作者 回帖獎勵 |倒序瀏覽 |閱讀模式


譯  名 賽車總帶動2 / 3D反斗車王2(港) / Cars2:天下大賽(臺) / 小汽車的故事2 / 汽車總帶動2 / 飛車正傳2
片  名 Cars 2
年  代 2011
產  地 美國
類  別 笑劇 / 動畫 / 冒險
語  言 英語 / 日語 / 意大利語 / 法語
上映日期 2011-06-24(美國) / 2011-08-24(中國大陸)
IMDb評分6.2/10 from 142508 users
IMDb鏈接http://www.imdb.com/title/tt1216475
豆瓣評分 7.6/10 from 64760 users
豆瓣鏈接 https://movie.douban.com/subject/3036478/
片  長 106分鐘
導  演 約翰·拉塞特 John Lasseter / 布拉德·劉易斯 Brad Lewis
編  劇 約翰·拉塞特 John Lasseter / 布拉德·劉易斯 Brad Lewis / 丹·福格爾曼 Dan Fogelman / 本·奎因 Ben Queen
主  演 歐文·威爾遜 Owen Wilson
     王牌接線員拉里 Larry The Cable Guy
     邁克爾·凱恩 Michael Caine
     艾米莉·莫迪默 Emily Mortimer
     艾迪·伊扎德 Eddie Izzard
     約翰·特托羅 John Turturro
     布倫特·馬斯伯格 Brent Musburger
     喬·曼特納 Joe Mantegna
     托馬斯·克萊舒曼 Thomas Kretschmann
     彼得·雅各布森 Peter Jacobson
     邦尼·亨特 Bonnie Hunt
     達雷爾·沃爾特里普 Darrell Waltrip
     弗蘭科·尼羅 Franco Nero
     大衛·赫伯斯 David Hobbs
     托尼·夏爾赫布 Tony Shalhoub
     杰夫·格爾林 Jeff Garlin
     詹森·艾薩克 Jason Isaacs
     布魯斯·坎貝爾Bruce Campbell
     詹妮弗·路易斯 Jenifer Lewis
     斯坦利·湯森德 Stanley Townsend
     維利貝·托皮奇 Velibor Topic
     錫格·漢森 Sig Hansen
     蓋多·克隆尼 Guido Quaroni
     瓦妮莎·雷德格瑞夫 Vanessa Redgrave
     布拉德·劉易斯 Brad Lewis
     切奇·馬林 Cheech Marin
     保羅·杜利 Paul Dooley
     伊迪·邁克萊爾 Edie McClurg
     理查德·坎德 Richard Kind
     凱瑟琳·海蒙德 Katherine Helmond
     邁克爾·沃利斯 Michael Wallis


標  簽 動畫 | 美國 | 皮克斯 | 笑劇 | 2011 | 迪斯尼 | 3D | 冒險

簡  介

  開辟出新能源的邁爾斯伯爵召開天下杯賽車大獎賽,各路妙手紛紛云集,獨獨缺了活塞杯霸主閃電麥昆(黃磊 配音)。本來他恰好回到溫泉鎮,與好哥們板牙(范偉 配音)、女友莎莉享用歡暢的假期。由于意大利方程式賽車法拉斯·高的搬弄,固然也有吃醋的緣由,麥昆終極贊成加出天下杯,并帶著板 牙等好友一同周游天下。在日本站角逐的前一天,板牙偶然結識了英國奸細邁克飛彈和霍莉(姚晨 配音),他們正在清查一支犯罪團伙的新意向。板牙鬼使神差被霍莉看成美國來的討論奸細,由此卷入了麻煩當中。在越日的角逐中,麥昆與法拉斯·高合作劇烈,與此同時不竭有選手意外爆缸,板牙則撞見邁克和奧秘構造火并的排場。
  因這連續串意外,麥昆和板牙的友誼遭到擺蕩,而這一切的幕后老板也漸漸暴露實在臉孔……

獲獎情況

  第69屆金球獎(2012)
  電影類 最好動畫長片(提名)

  第39屆動畫安妮獎(2012)
  最好動畫長片(提名)
  最好剪輯(提名) Stephen Schaffer
  最好分鏡(提名)
  最好藝術指導(提名) 哈雷·杰斯普
  最好腳色設想(提名) Jay Shuster
  最好動畫結果(提名) Eric Froemling / Jon Reisch
  • Video
  • ID             : 1
  • Format           : AVC
  • Format/Info          : Advanced Video Codec
  • Format profile         : <a href="/cdn-cgi/l/email-protection" class="__cf_email__" data-cfemail="b0f8d9d7d8f0fc859e81">[email protected]</a>
  • Format settings        : CABAC / 7 Ref Frames
  • Format settings, CABAC       : Yes
  • Format settings, Reference frames  : 7 frames
  • Codec ID           : V_MPEG4/ISO/AVC
  • Duration           : 1 h 46 min
  • Bit rate           : 31.8 Mb/s
  • Width            : 3 840 pixels
  • Height           : 1 606 pixels
  • Display aspect ratio       : 2.40:1
  • Frame rate mode        : Constant
  • Frame rate           : 23.976 (24000/1001) FPS
  • Color space          : YUV
  • Chroma subsampling       : 4:2:0
  • Bit depth          : 8 bits
  • Scan type          : Progressive
  • Bits/(Pixel*Frame)       : 0.215
  • Stream size          : 23.6 GiB (79%)
  • Title            : Cars.2.2011.2160p.BluRay.x264.8bit.SDR.TrueHD.7.1.Atmos-SWTYBLZ
  • Writing library        : x264 core 157 r2935 545de2f
  • Encoding settings        : cabac=1 / ref=7 / deblock=1:1:1 / analyse=0x3:0x113 / me=umh / subme=10 / psy=1 / psy_rd=0.40:0.00 / mixed_ref=1 / me_range=48 / chroma_me=1 / trellis=2 / 8x8dct=1 / cqm=0 / deadzone=21,11 / fast_pskip=1 / chroma_qp_offset=-2 / threads=50 / lookahead_threads=5 / sliced_threads=0 / nr=0 / decimate=0 / interlaced=0 / bluray_compat=0 / constrained_intra=0 / bframes=5 / b_pyramid=2 / b_adapt=2 / b_bias=0 / direct=3 / weightb=1 / open_gop=0 / weightp=2 / keyint=250 / keyint_min=23 / scenecut=40 / intra_refresh=0 / rc_lookahead=50 / rc=crf / mbtree=1 / crf=14.0 / qcomp=0.60 / qpmin=0 / qpmax=69 / qpstep=4 / ip_ratio=1.40 / aq=1:0.60
  • Default            : Yes
  • Forced           : No
  • Audio #1
  • ID             : 2
  • Format           : MLP FBA 16-ch
  • Format/Info          : Meridian Lossless Packing FBA with 16-channel presentation
  • Commercial name        : Dolby TrueHD with Dolby Atmos
  • Codec ID           : A_TRUEHD
  • Duration           : 1 h 46 min
  • Bit rate mode          : Variable
  • Bit rate           : 7 474 kb/s
  • Maximum bit rate         : 6 894 kb/s
  • Channel(s)           : 8 channels
  • Channel layout         : L R C LFE Ls Rs Lb Rb
  • Sampling rate          : 48.0 kHz
  • Frame rate           : 1 200.000 FPS (40 SPF)
  • Compression mode         : Lossless
  • Stream size          : 5.55 GiB (19%)
  • Title            : Cars.2.2011.2160p.BluRay.x264.8bit.SDR.TrueHD.7.1.Atmos-SWTYBLZ
  • Language           : English
  • Default            : Yes
  • Forced           : No
  • Number of dynamic objects      : 13
  • Bed channel count        : 1 channel
  • Bed channel configuration      : LFE
  • Audio #2
  • ID             : 3
  • Format           : AC-3
  • Format/Info          : Audio Coding 3
  • Commercial name        : Dolby Digital
  • Codec ID           : A_AC3
  • Duration           : 1 h 46 min
  • Bit rate mode          : Constant
  • Bit rate           : 640 kb/s
  • Channel(s)           : 6 channels
  • Channel layout         : L R C LFE Ls Rs
  • Sampling rate          : 48.0 kHz
  • Frame rate           : 31.250 FPS (1536 SPF)
  • Bit depth          : 16 bits
  • Compression mode         : Lossy
  • Stream size          : 486 MiB (2%)
  • Title            : Cars.2.2011.2160p.BluRay.x264.8bit.SDR.TrueHD.7.1.Atmos-SWTYBLZ
  • Language           : English
  • Service kind         : Complete Main
  • Default            : No
  • Forced           : No
  • Text #1
  • ID             : 4
  • Format           : UTF-8
  • Codec ID           : S_TEXT/UTF8
  • Codec ID/Info          : UTF-8 Plain Text
  • Duration           : 1 h 37 min
  • Bit rate           : 83 b/s
  • Count of elements        : 1536
  • Stream size          : 59.7 KiB (0%)
  • Title            : English-SRT
  • Language           : English
  • Default            : Yes
  • Forced           : No
  • Text #2
  • ID             : 5
  • Format           : PGS
  • Muxing mode          : zlib
  • Codec ID           : S_HDMV/PGS
  • Codec ID/Info          : Picture based subtitle format used on BDs/HD-DVDs
  • Duration           : 1 h 37 min
  • Bit rate           : 61.9 kb/s
  • Count of elements        : 3333
  • Stream size          : 43.1 MiB (0%)
  • Title            : English-PGS
  • Language           : English
  • Default            : No
  • Forced           : No
  • Text #3
  • ID             : 6
  • Format           : PGS
  • Muxing mode          : zlib
  • Codec ID           : S_HDMV/PGS
  • Codec ID/Info          : Picture based subtitle format used on BDs/HD-DVDs
  • Duration           : 1 h 37 min
  • Bit rate           : 50.8 kb/s
  • Count of elements        : 2884
  • Stream size          : 35.4 MiB (0%)
  • Title            : Spanish-PGS
  • Language           : Spanish
  • Default            : No
  • Forced           : No
  • Menu
  • 00:00:00.000         : en:Chapter 01
  • 00:01:30.006         : en:Chapter 02
  • 00:04:48.329         : en:Chapter 03
  • 00:07:44.464         : en:Chapter 04
  • 00:12:08.519         : en:Chapter 05
  • 00:17:49.777         : en:Chapter 06
  • 00:20:02.159         : en:Chapter 07
  • 00:22:52.329         : en:Chapter 08
  • 00:26:35.343         : en:Chapter 09
  • 00:30:30.995         : en:Chapter 10
  • 00:32:42.794         : en:Chapter 11
  • 00:34:14.343         : en:Chapter 12
  • 00:37:16.400         : en:Chapter 13
  • 00:40:44.859         : en:Chapter 14
  • 00:42:53.988         : en:Chapter 15
  • 00:46:19.401         : en:Chapter 16
  • 00:46:58.732         : en:Chapter 17
  • 00:49:49.361         : en:Chapter 18
  • 00:53:57.234         : en:Chapter 19
  • 00:54:58.086         : en:Chapter 20
  • 00:57:37.036         : en:Chapter 21
  • 00:59:28.565         : en:Chapter 22
  • 01:02:17.608         : en:Chapter 23
  • 01:05:57.036         : en:Chapter 24
  • 01:12:32.598         : en:Chapter 25
  • 01:14:06.733         : en:Chapter 26
  • 01:15:25.020         : en:Chapter 27
  • 01:21:13.618         : en:Chapter 28
  • 01:23:23.081         : en:Chapter 29
  • 01:29:07.759         : en:Chapter 30
  • 01:31:48.961         : en:Chapter 31
  • 01:32:42.056         : en:Chapter 32
  • 01:38:19.393         : en:Chapter 33













分享到:  QQ好友和群QQ好友和群
收藏收藏
字幕下載網站---點這里進入
回復

使用道具 舉報

您需要登錄后才可以回帖 登錄 | 立即注冊

本版積分規則

QQ|Archiver|手機版|小黑屋|藍光電影網

GMT+8, 2019-12-8 19:59 , Processed in 0.046801 second(s), 20 queries .

Powered by Discuz! X3.4

© 2001-2017 Comsenz Inc.

快速回復 返回頂部 返回列表
中原风釆22选5走势图