藍光電影網

 找回密碼
 立即注冊

QQ登錄

只需一步,快速開始

搜索
熱搜: 活動 交友 discuz
查看: 712|回復: 0
打印 上一主題 下一主題

[REMUX.HEVC] 恐龍當家/善良的恐龍 The.Good.Dinosaur.2015.2160p.BluRay.REMUX.HEVC.DTS-HD.MA.TrueHD.7.1.Atmos-FGT 46.92GB

[復制鏈接]

4萬

主題

4萬

帖子

4萬

積分

管理員

Rank: 9Rank: 9Rank: 9

積分
47929
跳轉到指定樓層
1#
發表于 2019-9-12 11:03:27 | 只看該作者 回帖獎勵 |倒序瀏覽 |閱讀模式


譯  名 恐龍當家 / 善良的恐龍 / 恐龍大時代(港) / 恐龍管家 / 美好的恐龍天下
片  名 The Good Dinosaur
年  代 2015
產  地 美國
類  別 笑劇 / 動畫 / 家庭 / 冒險
語  言 英語
上映日期 2015-11-25(美國)
IMDb評分6.7/10 from 92908 users
IMDb鏈接http://www.imdb.com/title/tt1979388
豆瓣評分 7.3/10 from 36588 users
豆瓣鏈接 https://movie.douban.com/subject/6875863/
片  長 93分鐘
導  演 彼得·孫 Peter Sohn
編  劇 鮑勃·彼德森 Bob Peterson / 彼得·孫 Peter Sohn / 埃里克·本森 Erik Benson / 梅格·勒福夫 Meg LeFauve / 凱爾西·曼 Kelsey Mann / 彼得·赫奇斯 Peter Hedges / 阿德里安·莫利納 Adrian Molina
主  演 雷蒙德·奧喬亞 Raymond Ochoa
     杰克·布賴特 Jack Bright
     杰弗里·懷特 Jeffrey Wright
     史蒂夫·茨恩 Steve Zahn
     A·J·巴克利 A.J. Buckley
     安娜·帕奎因 Anna Paquin
     山姆·艾里奧特 Sam Elliott
     弗蘭西斯·麥克多蒙德 Frances McDormand
     馬庫斯·斯克里布納 Marcus Scribner
     彼得·索恩 Peter Sohn


標  簽 動畫 | 美國 | 皮克斯 | 長大 | 迪士尼 | 冒險 | Pixar | 2015

簡  介

  6500萬年前,一顆小行星與地球擦肩而過,稱霸這個天下的恐龍懵懵懂懂地逃過了沒頂之災。以后又過了數百萬年,恐龍的智力獲得進化,它們學會種植、畜牧、修建,而且具有屬于自己的說話和家庭。某座山腳下的平原地帶,雷龍一家迎來三本性情各異的娃娃,最小的阿洛(雷蒙德·奧喬亞 Ray mond Ochoa 配音)羸弱膽寒,與父親的生離死別更在他的心中投下難以磨滅的陰影。連續串的事務事后,他與媽媽、哥哥、姐姐相隔萬里。阿洛將這一切都歸罪于原始人類的小孩點點(杰克·布賴特 Jack Bright 配音)。而點點似乎不為所動,他自動親近阿洛,恍如是一條虔誠勇敢的小狗。
  在布滿坎坷和危險的回家之路上,阿洛與點點結伴而行,而這兩個本不應碰面的恐龍和人類,將締結超越了種族和時空的純真友誼……

獲獎情況

  第73屆金球獎(2016)
  電影類 最好動畫長片(提名)

  第43屆動畫安妮獎(2016)
  最好動畫長片(提名)
  最好配樂(提名)
  最好分鏡(提名)
  最好藝術指導(提名)
  最好動畫腳色(提名)
  最好腳色設想(提名)
  最好動畫結果

  第27屆美國制片野生會獎(2016)
  最好動畫片制片人獎(提名)

  第66屆美國剪輯工會獎(2016)
  動畫片最好剪輯(提名)

  第14屆美國視覺結果協會獎(2016)
  最好動畫電影視覺結果
  最好動畫電影CG動畫腳色(提名)
  最好動畫電影CG布景
  最好動畫電影模擬動畫結果

  第21屆美國批評家挑選電影獎(2016)
  最好動畫片(提名)

  第19屆美國在線影評人協會獎(2015)
  最好動畫片(提名)

  第2屆豆瓣電影年度榜單(2015)
  評分最高的動畫片(提名)
  • Video
  • ID             : 1
  • Format           : HEVC
  • Format/Info          : High Efficiency Video Coding
  • Format profile         : Main <a href="/cdn-cgi/l/email-protection" class="__cf_email__" data-cfemail="c3f2f3838ff6edf2">[email protected]</a>@High
  • HDR format           : SMPTE ST 2086, HDR10 compatible
  • Codec ID           : V_MPEGH/ISO/HEVC
  • Duration           : 1 h 33 min
  • Bit rate           : 55.5 Mb/s
  • Width            : 3 840 pixels
  • Height           : 2 160 pixels
  • Display aspect ratio       : 16:9
  • Frame rate mode        : Constant
  • Frame rate           : 23.976 (24000/1001) FPS
  • Color space          : YUV
  • Chroma subsampling       : 4:2:0 (Type 2)
  • Bit depth          : 10 bits
  • Bits/(Pixel*Frame)       : 0.279
  • Stream size          : 36.3 GiB (77%)
  • Title            : The.Good.Dinosaur.2015.2160p.BluRay.REMUX.HEVC.DTS-HD.MA.TrueHD.7.1.Atmos-FGT
  • Writing library        : ATEME Titan File 3.9.0 (4.9.0.0)
  • Language           : English
  • Default            : No
  • Forced           : No
  • Color range          : Limited
  • Color primaries        : BT.2020
  • Transfer characteristics     : PQ
  • Matrix coefficients        : BT.2020 non-constant
  • Mastering display color primaries  : Display P3
  • Mastering display luminance    : min: 0.0000 cd/m2, max: 1000 cd/m2
  • Audio #1
  • ID             : 2
  • Format           : MLP FBA 16-ch
  • Format/Info          : Meridian Lossless Packing FBA with 16-channel presentation
  • Commercial name        : Dolby TrueHD with Dolby Atmos
  • Codec ID           : A_TRUEHD
  • Duration           : 1 h 33 min
  • Bit rate mode          : Variable
  • Bit rate           : 6 345 kb/s
  • Maximum bit rate         : 8 292 kb/s
  • Channel(s)           : 8 channels
  • Channel layout         : L R C LFE Ls Rs Lb Rb
  • Sampling rate          : 48.0 kHz
  • Frame rate           : 1 200.000 FPS (40 SPF)
  • Compression mode         : Lossless
  • Stream size          : 4.15 GiB (9%)
  • Title            : The.Good.Dinosaur.2015.2160p.BluRay.REMUX.HEVC.DTS-HD.MA.TrueHD.7.1.Atmos-FGT
  • Language           : English
  • Default            : Yes
  • Forced           : No
  • Number of dynamic objects      : 13
  • Bed channel count        : 1 channel
  • Bed channel configuration      : LFE
  • Audio #2
  • ID             : 3
  • Format           : DTS XLL
  • Format/Info          : Digital Theater Systems
  • Commercial name        : DTS-HD Master Audio
  • Codec ID           : A_DTS
  • Duration           : 1 h 33 min
  • Bit rate mode          : Variable
  • Bit rate           : 3 642 kb/s
  • Channel(s)           : 8 channels
  • Channel layout         : C L R LFE Lb Rb Lss Rss
  • Sampling rate          : 48.0 kHz
  • Frame rate           : 93.750 FPS (512 SPF)
  • Bit depth          : 24 bits
  • Compression mode         : Lossless
  • Stream size          : 2.38 GiB (5%)
  • Title            : The.Good.Dinosaur.2015.2160p.BluRay.REMUX.HEVC.DTS-HD.MA.TrueHD.7.1.Atmos-FGT
  • Language           : English
  • Default            : No
  • Forced           : No
  • Audio #3
  • ID             : 4
  • Format           : AC-3
  • Format/Info          : Audio Coding 3
  • Commercial name        : Dolby Digital
  • Codec ID           : A_AC3
  • Duration           : 1 h 33 min
  • Bit rate mode          : Constant
  • Bit rate           : 640 kb/s
  • Channel(s)           : 6 channels
  • Channel layout         : L R C LFE Ls Rs
  • Sampling rate          : 48.0 kHz
  • Frame rate           : 31.250 FPS (1536 SPF)
  • Bit depth          : 16 bits
  • Compression mode         : Lossy
  • Stream size          : 429 MiB (1%)
  • Title            : The.Good.Dinosaur.2015.2160p.BluRay.REMUX.HEVC.DTS-HD.MA.TrueHD.7.1.Atmos-FGT
  • Language           : English
  • Service kind         : Complete Main
  • Default            : No
  • Forced           : No
  • Audio #4
  • ID             : 5
  • Format           : E-AC-3
  • Format/Info          : Enhanced AC-3
  • Commercial name        : Dolby Digital Plus
  • Format profile         : Blu-ray Disc
  • Codec ID           : A_EAC3
  • Duration           : 1 h 33 min
  • Bit rate mode          : Constant
  • Bit rate           : 896 kb/s
  • Channel(s)           : 8 channels
  • Channel layout         : L R C LFE Ls Rs Lb Rb
  • Sampling rate          : 48.0 kHz
  • Frame rate           : 31.250 FPS (1536 SPF)
  • Compression mode         : Lossy
  • Stream size          : 600 MiB (1%)
  • Title            : The.Good.Dinosaur.2015.2160p.BluRay.REMUX.HEVC.DTS-HD.MA.TrueHD.7.1.Atmos-FGT
  • Language           : English
  • Service kind         : Complete Main
  • Default            : No
  • Forced           : No
  • Audio #5
  • ID             : 6
  • Format           : AC-3
  • Format/Info          : Audio Coding 3
  • Commercial name        : Dolby Digital
  • Codec ID           : A_AC3
  • Duration           : 1 h 33 min
  • Bit rate mode          : Constant
  • Bit rate           : 512 kb/s
  • Channel(s)           : 6 channels
  • Channel layout         : L R C LFE Ls Rs
  • Sampling rate          : 48.0 kHz
  • Frame rate           : 31.250 FPS (1536 SPF)
  • Bit depth          : 16 bits
  • Compression mode         : Lossy
  • Stream size          : 343 MiB (1%)
  • Title            : The.Good.Dinosaur.2015.2160p.BluRay.REMUX.HEVC.DTS-HD.MA.TrueHD.7.1.Atmos-FGT
  • Language           : English
  • Service kind         : Complete Main
  • Default            : No
  • Forced           : No
  • Audio #6
  • ID             : 7
  • Format           : AC-3
  • Format/Info          : Audio Coding 3
  • Commercial name        : Dolby Digital
  • Codec ID           : A_AC3
  • Duration           : 1 h 33 min
  • Bit rate mode          : Constant
  • Bit rate           : 640 kb/s
  • Channel(s)           : 6 channels
  • Channel layout         : L R C LFE Ls Rs
  • Sampling rate          : 48.0 kHz
  • Frame rate           : 31.250 FPS (1536 SPF)
  • Bit depth          : 16 bits
  • Compression mode         : Lossy
  • Stream size          : 429 MiB (1%)
  • Title            : The.Good.Dinosaur.2015.2160p.BluRay.REMUX.HEVC.DTS-HD.MA.TrueHD.7.1.Atmos-FGT
  • Language           : English
  • Service kind         : Complete Main
  • Default            : No
  • Forced           : No
  • Audio #7
  • ID             : 8
  • Format           : AC-3
  • Format/Info          : Audio Coding 3
  • Commercial name        : Dolby Digital
  • Codec ID           : A_AC3
  • Duration           : 1 h 33 min
  • Bit rate mode          : Constant
  • Bit rate           : 320 kb/s
  • Channel(s)           : 2 channels
  • Channel layout         : L R
  • Sampling rate          : 48.0 kHz
  • Frame rate           : 31.250 FPS (1536 SPF)
  • Bit depth          : 16 bits
  • Compression mode         : Lossy
  • Stream size          : 214 MiB (0%)
  • Title            : The.Good.Dinosaur.2015.2160p.BluRay.REMUX.HEVC.DTS-HD.MA.TrueHD.7.1.Atmos-FGT
  • Language           : English
  • Service kind         : Complete Main
  • Default            : No
  • Forced           : No
  • Audio #8
  • ID             : 9
  • Format           : AC-3
  • Format/Info          : Audio Coding 3
  • Commercial name        : Dolby Digital
  • Codec ID           : A_AC3
  • Duration           : 1 h 33 min
  • Bit rate mode          : Constant
  • Bit rate           : 320 kb/s
  • Channel(s)           : 2 channels
  • Channel layout         : L R
  • Sampling rate          : 48.0 kHz
  • Frame rate           : 31.250 FPS (1536 SPF)
  • Bit depth          : 16 bits
  • Compression mode         : Lossy
  • Stream size          : 214 MiB (0%)
  • Title            : The.Good.Dinosaur.2015.2160p.BluRay.REMUX.HEVC.DTS-HD.MA.TrueHD.7.1.Atmos-FGT
  • Language           : English
  • Service kind         : Complete Main
  • Default            : No
  • Forced           : No
  • Audio #9
  • ID             : 10
  • Format           : E-AC-3
  • Format/Info          : Enhanced AC-3
  • Commercial name        : Dolby Digital Plus
  • Format profile         : Blu-ray Disc
  • Codec ID           : A_EAC3
  • Duration           : 1 h 33 min
  • Bit rate mode          : Constant
  • Bit rate           : 896 kb/s
  • Channel(s)           : 8 channels
  • Channel layout         : L R C LFE Ls Rs Lb Rb
  • Sampling rate          : 48.0 kHz
  • Frame rate           : 31.250 FPS (1536 SPF)
  • Compression mode         : Lossy
  • Stream size          : 600 MiB (1%)
  • Title            : The.Good.Dinosaur.2015.2160p.BluRay.REMUX.HEVC.DTS-HD.MA.TrueHD.7.1.Atmos-FGT
  • Language           : French
  • Service kind         : Complete Main
  • Default            : No
  • Forced           : No
  • Audio #10
  • ID             : 11
  • Format           : AC-3
  • Format/Info          : Audio Coding 3
  • Commercial name        : Dolby Digital
  • Codec ID           : A_AC3
  • Duration           : 1 h 33 min
  • Bit rate mode          : Constant
  • Bit rate           : 512 kb/s
  • Channel(s)           : 6 channels
  • Channel layout         : L R C LFE Ls Rs
  • Sampling rate          : 48.0 kHz
  • Frame rate           : 31.250 FPS (1536 SPF)
  • Bit depth          : 16 bits
  • Compression mode         : Lossy
  • Stream size          : 343 MiB (1%)
  • Title            : The.Good.Dinosaur.2015.2160p.BluRay.REMUX.HEVC.DTS-HD.MA.TrueHD.7.1.Atmos-FGT
  • Language           : French
  • Service kind         : Complete Main
  • Default            : No
  • Forced           : No
  • Audio #11
  • ID             : 12
  • Format           : E-AC-3
  • Format/Info          : Enhanced AC-3
  • Commercial name        : Dolby Digital Plus
  • Format profile         : Blu-ray Disc
  • Codec ID           : A_EAC3
  • Duration           : 1 h 33 min
  • Bit rate mode          : Constant
  • Bit rate           : 896 kb/s
  • Channel(s)           : 8 channels
  • Channel layout         : L R C LFE Ls Rs Lb Rb
  • Sampling rate          : 48.0 kHz
  • Frame rate           : 31.250 FPS (1536 SPF)
  • Compression mode         : Lossy
  • Stream size          : 600 MiB (1%)
  • Title            : The.Good.Dinosaur.2015.2160p.BluRay.REMUX.HEVC.DTS-HD.MA.TrueHD.7.1.Atmos-FGT
  • Language           : Spanish
  • Service kind         : Complete Main
  • Default            : No
  • Forced           : No
  • Audio #12
  • ID             : 13
  • Format           : AC-3
  • Format/Info          : Audio Coding 3
  • Commercial name        : Dolby Digital
  • Codec ID           : A_AC3
  • Duration           : 1 h 33 min
  • Bit rate mode          : Constant
  • Bit rate           : 512 kb/s
  • Channel(s)           : 6 channels
  • Channel layout         : L R C LFE Ls Rs
  • Sampling rate          : 48.0 kHz
  • Frame rate           : 31.250 FPS (1536 SPF)
  • Bit depth          : 16 bits
  • Compression mode         : Lossy
  • Stream size          : 343 MiB (1%)
  • Title            : The.Good.Dinosaur.2015.2160p.BluRay.REMUX.HEVC.DTS-HD.MA.TrueHD.7.1.Atmos-FGT
  • Language           : Spanish
  • Service kind         : Complete Main
  • Default            : No
  • Forced           : No
  • Text #1
  • ID             : 14
  • Format           : UTF-8
  • Codec ID           : S_TEXT/UTF8
  • Codec ID/Info          : UTF-8 Plain Text
  • Duration           : 1 h 21 min
  • Bit rate           : 24 b/s
  • Count of elements        : 530
  • Stream size          : 14.4 KiB (0%)
  • Title            : English-SRT
  • Language           : English
  • Default            : Yes
  • Forced           : No
  • Text #2
  • ID             : 15
  • Format           : PGS
  • Muxing mode          : zlib
  • Codec ID           : S_HDMV/PGS
  • Codec ID/Info          : Picture based subtitle format used on BDs/HD-DVDs
  • Duration           : 1 h 23 min
  • Bit rate           : 22.9 kb/s
  • Count of elements        : 1770
  • Stream size          : 13.7 MiB (0%)
  • Title            : English-PGS
  • Language           : English
  • Default            : No
  • Forced           : No
  • Text #3
  • ID             : 16
  • Format           : PGS
  • Muxing mode          : zlib
  • Codec ID           : S_HDMV/PGS
  • Codec ID/Info          : Picture based subtitle format used on BDs/HD-DVDs
  • Duration           : 1 h 24 min
  • Bit rate           : 14.8 kb/s
  • Count of elements        : 960
  • Stream size          : 8.90 MiB (0%)
  • Title            : French-PGS
  • Language           : French
  • Default            : No
  • Forced           : No
  • Text #4
  • ID             : 17
  • Format           : PGS
  • Muxing mode          : zlib
  • Codec ID           : S_HDMV/PGS
  • Codec ID/Info          : Picture based subtitle format used on BDs/HD-DVDs
  • Duration           : 1 h 24 min
  • Bit rate           : 14.3 kb/s
  • Count of elements        : 954
  • Stream size          : 8.57 MiB (0%)
  • Title            : Spanish-PGS
  • Language           : Spanish
  • Default            : No
  • Forced           : No
  • Menu
  • 00:00:00.000         : en:Chapter 01
  • 00:03:37.926         : en:Chapter 02
  • 00:06:16.459         : en:Chapter 03
  • 00:08:14.160         : en:Chapter 04
  • 00:12:12.606         : en:Chapter 05
  • 00:14:33.914         : en:Chapter 06
  • 00:17:42.102         : en:Chapter 07
  • 00:21:10.644         : en:Chapter 08
  • 00:22:58.168         : en:Chapter 09
  • 00:26:41.057         : en:Chapter 10
  • 00:29:02.615         : en:Chapter 11
  • 00:33:10.071         : en:Chapter 12
  • 00:35:28.668         : en:Chapter 13
  • 00:38:14.417         : en:Chapter 14
  • 00:41:08.841         : en:Chapter 15
  • 00:45:42.948         : en:Chapter 16
  • 00:47:47.948         : en:Chapter 17
  • 00:51:48.271         : en:Chapter 18
  • 00:55:46.968         : en:Chapter 19
  • 01:00:22.952         : en:Chapter 20
  • 01:03:59.001         : en:Chapter 21
  • 01:05:27.214         : en:Chapter 22
  • 01:07:11.777         : en:Chapter 23
  • 01:11:06.428         : en:Chapter 24
  • 01:13:43.377         : en:Chapter 25
  • 01:16:01.306         : en:Chapter 26
  • 01:19:08.118         : en:Chapter 27
  • 01:23:56.698         : en:Chapter 28
  • 01:26:00.780         : en:Chapter 29













分享到:  QQ好友和群QQ好友和群
收藏收藏
字幕下載網站---點這里進入
回復

使用道具 舉報

您需要登錄后才可以回帖 登錄 | 立即注冊

本版積分規則

QQ|Archiver|手機版|小黑屋|藍光電影網

GMT+8, 2019-12-5 04:18 , Processed in 0.058713 second(s), 20 queries .

Powered by Discuz! X3.4

© 2001-2017 Comsenz Inc.

快速回復 返回頂部 返回列表
中原风釆22选5走势图