藍光電影網

 找回密碼
 立即注冊

QQ登錄

只需一步,快速開始

搜索
熱搜: 活動 交友 discuz
查看: 527|回復: 0
打印 上一主題 下一主題

[8bit.SDR] 賭城風云/賭國風云 Casino.1995.2160p.BluRay.x264.8bit.SDR.DTS-X.7.1-SWTYBLZ 70.37GB

[復制鏈接]

4萬

主題

4萬

帖子

4萬

積分

管理員

Rank: 9Rank: 9Rank: 9

積分
47929
跳轉到指定樓層
1#
發表于 2019-9-12 10:55:25 | 只看該作者 回帖獎勵 |倒序瀏覽 |閱讀模式


譯  名 賭城風云 / 賭國風云 / 賭場
片  名 Casino
年  代 1995
產  地 美國 / 法國
類  別 劇情 / 列傳 / 犯罪
語  言 英語 / 法語
上映日期 1995-11-22
IMDb評分8.2/10 from 419999 users
IMDb鏈接http://www.imdb.com/title/tt0112641
豆瓣評分 8.2/10 from 24223 users
豆瓣鏈接 https://movie.douban.com/subject/1299799/
片  長 178 分鐘
導  演 Martin Scorsese
編  劇 Nicholas Pileggi / Martin Scorsese
主  演 Robert De Niro
     Sharon Stone
     Joe Pesci
     James Woods
     Frank Vincent


標  簽 黑幫 | 羅伯特·德尼羅 | 馬丁·斯科塞斯 | 美國 | 犯罪 | MartinScorsese | RobertDeNiro | 美國電影

簡  介

  電影《賭城風云》是由大導演馬丁·斯科塞斯與老拍檔羅伯特·德尼羅的第八度合作。薩姆·“埃斯”·羅思坦(羅伯特·德尼羅 Robert De Niro 飾)抱著“賭博是一樁需要認真看待的奇跡”這個信心經營這一家拉斯維加斯的賭場。這個信心使他的賭場買賣興盛,而也讓他成為富四一方的富翁。可是自從他娶了妓女身世的金姬(莎朗·斯通 Sharon Stone 飾)后,一切都發生了改變。金姬是個得寸進尺,嗜好酒和毒品的美麗女人,對前男友舊情不忘甚至給他送錢;黑社會老邁派來庇護薩姆的尼基(喬·佩西 Joe Pesci 飾)總是冒犯罪令,被警方制止踏足賭場,還不量力要當老板;薩姆解雇了不負義務的雇員卻獲咎了當地的官員;更糟糕的是,薩姆和昔日的合作伙伴間的磨擦加重。一切的一切,都使薩姆七上八下……

獲獎情況

  第68屆奧斯卡金像獎(1996)
  最好女配角(提名) 莎朗·斯通
  • Video
  • ID             : 1
  • Format           : AVC
  • Format/Info          : Advanced Video Codec
  • Format profile         : <a href="/cdn-cgi/l/email-protection" class="__cf_email__" data-cfemail="d991b0beb19995ecf7e8">[email protected]</a>
  • Format settings        : CABAC / 5 Ref Frames
  • Format settings, CABAC       : Yes
  • Format settings, Reference frames  : 5 frames
  • Codec ID           : V_MPEG4/ISO/AVC
  • Duration           : 2 h 58 min
  • Bit rate           : 52.1 Mb/s
  • Width            : 3 840 pixels
  • Height           : 1 634 pixels
  • Display aspect ratio       : 2.35:1
  • Frame rate mode        : Constant
  • Frame rate           : 23.976 (24000/1001) FPS
  • Color space          : YUV
  • Chroma subsampling       : 4:2:0
  • Bit depth          : 8 bits
  • Scan type          : Progressive
  • Bits/(Pixel*Frame)       : 0.346
  • Stream size          : 64.9 GiB (92%)
  • Title            : Casino.1995.2160p.BluRay.x264.8bit.SDR.DTS-X.7.1-SWTYBLZ
  • Writing library        : x264 core 157 r2935 545de2f
  • Encoding settings        : cabac=1 / ref=5 / deblock=1:-1:-1 / analyse=0x3:0x113 / me=umh / subme=10 / psy=1 / psy_rd=1.00:0.15 / mixed_ref=1 / me_range=48 / chroma_me=1 / trellis=2 / 8x8dct=1 / cqm=0 / deadzone=21,11 / fast_pskip=1 / chroma_qp_offset=-3 / threads=48 / lookahead_threads=4 / sliced_threads=0 / nr=0 / decimate=0 / interlaced=0 / bluray_compat=0 / constrained_intra=0 / bframes=3 / b_pyramid=2 / b_adapt=2 / b_bias=0 / direct=3 / weightb=1 / open_gop=0 / weightp=2 / keyint=250 / keyint_min=23 / scenecut=40 / intra_refresh=0 / rc_lookahead=50 / rc=crf / mbtree=1 / crf=18.0 / qcomp=0.60 / qpmin=0 / qpmax=69 / qpstep=4 / ip_ratio=1.40 / aq=1:1.00
  • Default            : Yes
  • Forced           : No
  • Audio #1
  • ID             : 2
  • Format           : DTS XLL X
  • Format/Info          : Digital Theater Systems
  • Commercial name        : DTS-HD Master Audio
  • Codec ID           : A_DTS
  • Duration           : 2 h 58 min
  • Bit rate mode          : Variable
  • Bit rate           : 3 508 kb/s
  • Channel(s)           : 8 channels
  • Channel(s)_Original        : Object Based
  • Channel layout         : Object Based
  • Sampling rate          : 48.0 kHz
  • Frame rate           : 93.750 FPS (512 SPF)
  • Bit depth          : 24 bits
  • Stream size          : 4.37 GiB (6%)
  • Title            : Casino.1995.2160p.BluRay.x264.8bit.SDR.DTS-X.7.1-SWTYBLZ
  • Language           : English
  • Default            : Yes
  • Forced           : No
  • Audio #2
  • ID             : 3
  • Format           : AC-3
  • Format/Info          : Audio Coding 3
  • Commercial name        : Dolby Digital
  • Codec ID           : A_AC3
  • Duration           : 2 h 58 min
  • Bit rate mode          : Constant
  • Bit rate           : 640 kb/s
  • Channel(s)           : 6 channels
  • Channel layout         : L R C LFE Ls Rs
  • Sampling rate          : 48.0 kHz
  • Frame rate           : 31.250 FPS (1536 SPF)
  • Bit depth          : 16 bits
  • Compression mode         : Lossy
  • Stream size          : 816 MiB (1%)
  • Title            : Casino.1995.2160p.BluRay.x264.8bit.SDR.DTS-X.7.1-SWTYBLZ
  • Language           : English
  • Service kind         : Complete Main
  • Default            : No
  • Forced           : No
  • Text #1
  • ID             : 4
  • Format           : UTF-8
  • Codec ID           : S_TEXT/UTF8
  • Codec ID/Info          : UTF-8 Plain Text
  • Duration           : 2 h 51 min
  • Bit rate           : 99 b/s
  • Count of elements        : 2790
  • Stream size          : 125 KiB (0%)
  • Title            : English-SRT
  • Language           : English
  • Default            : Yes
  • Forced           : No
  • Text #2
  • ID             : 5
  • Format           : PGS
  • Muxing mode          : zlib
  • Codec ID           : S_HDMV/PGS
  • Codec ID/Info          : Picture based subtitle format used on BDs/HD-DVDs
  • Duration           : 2 h 55 min
  • Bit rate           : 66.1 kb/s
  • Count of elements        : 7288
  • Stream size          : 82.9 MiB (0%)
  • Title            : English-PGS
  • Language           : English
  • Default            : No
  • Forced           : No
  • Text #3
  • ID             : 6
  • Format           : PGS
  • Muxing mode          : zlib
  • Codec ID           : S_HDMV/PGS
  • Codec ID/Info          : Picture based subtitle format used on BDs/HD-DVDs
  • Duration           : 2 h 55 min
  • Bit rate           : 51.3 kb/s
  • Count of elements        : 5414
  • Stream size          : 64.5 MiB (0%)
  • Title            : French-PGS
  • Language           : French
  • Default            : No
  • Forced           : No
  • Text #4
  • ID             : 7
  • Format           : PGS
  • Muxing mode          : zlib
  • Codec ID           : S_HDMV/PGS
  • Codec ID/Info          : Picture based subtitle format used on BDs/HD-DVDs
  • Duration           : 2 h 55 min
  • Bit rate           : 39.8 kb/s
  • Count of elements        : 5252
  • Stream size          : 50.0 MiB (0%)
  • Title            : Spanish-PGS
  • Language           : Spanish
  • Default            : No
  • Forced           : No
  • Text #5
  • ID             : 8
  • Format           : PGS
  • Muxing mode          : zlib
  • Codec ID           : S_HDMV/PGS
  • Codec ID/Info          : Picture based subtitle format used on BDs/HD-DVDs
  • Duration           : 2 h 57 min
  • Bit rate           : 31.4 kb/s
  • Count of elements        : 4846
  • Stream size          : 39.9 MiB (0%)
  • Title            : Japanese-PGS
  • Language           : Japanese
  • Default            : No
  • Forced           : No
  • Text #6
  • ID             : 9
  • Format           : PGS
  • Muxing mode          : zlib
  • Codec ID           : S_HDMV/PGS
  • Codec ID/Info          : Picture based subtitle format used on BDs/HD-DVDs
  • Duration           : 2 h 57 min
  • Bit rate           : 53.3 kb/s
  • Count of elements        : 5520
  • Stream size          : 67.7 MiB (0%)
  • Title            : Portuguese-PGS
  • Language           : Portuguese
  • Default            : No
  • Forced           : No
  • Menu
  • 00:00:00.000         : en:Chapter 01
  • 00:04:55.461         : en:Chapter 02
  • 00:21:57.816         : en:Chapter 03
  • 00:27:49.542         : en:Chapter 04
  • 00:33:46.399         : en:Chapter 05
  • 00:38:56.834         : en:Chapter 06
  • 00:58:22.999         : en:Chapter 07
  • 01:06:10.967         : en:Chapter 08
  • 01:26:24.470         : en:Chapter 09
  • 01:31:49.545         : en:Chapter 10
  • 02:00:29.305         : en:Chapter 11
  • 02:14:10.125         : en:Chapter 12
  • 02:28:31.277         : en:Chapter 13
  • 02:39:55.711         : en:Chapter 14
  • 02:46:56.047         : en:Chapter 15
  • 02:50:12.035         : en:Chapter 16













分享到:  QQ好友和群QQ好友和群
收藏收藏
字幕下載網站---點這里進入
回復

使用道具 舉報

您需要登錄后才可以回帖 登錄 | 立即注冊

本版積分規則

QQ|Archiver|手機版|小黑屋|藍光電影網

GMT+8, 2019-12-5 03:42 , Processed in 0.049535 second(s), 20 queries .

Powered by Discuz! X3.4

© 2001-2017 Comsenz Inc.

快速回復 返回頂部 返回列表
中原风釆22选5走势图