藍光電影網

 找回密碼
 立即注冊

QQ登錄

只需一步,快速開始

搜索
熱搜: 活動 交友 discuz
查看: 508|回復: 0
打印 上一主題 下一主題

[REMUX.HEVC] 美食總動員/五星級大鼠 Ratatouille.2007.2160p.BluRay.REMUX.HEVC.TrueHD.7.1.Atmos-FGT 43.52GB

[復制鏈接]

4萬

主題

4萬

帖子

4萬

積分

管理員

Rank: 9Rank: 9Rank: 9

積分
47929
跳轉到指定樓層
1#
發表于 2019-9-12 10:52:17 | 只看該作者 回帖獎勵 |倒序瀏覽 |閱讀模式


譯  名 美食總帶動 / 五星級大鼠(港) / 小鼠大廚 / 料理鼠王(臺) / 蔬菜雜燴
片  名 Ratatouille
年  代 2007
產  地 美國
類  別 笑劇 / 動畫 / 奇異
語  言 英語 / 法語
上映日期 2007-06-29(美國) / 2007-10-19(中國大陸)
IMDb評分8.0/10 from 589266 users
IMDb鏈接http://www.imdb.com/title/tt0382932
豆瓣評分 8.4/10 from 236163 users
豆瓣鏈接 https://movie.douban.com/subject/1793491/
片  長 111 分鐘
導  演 Brad Bird / Jan Pinkava
編  劇 Brad Bird / Jan Pinkava
主  演 Patton Oswalt
     Peter O'Toole
     Brad Garrett
     Ian Holm
     Lou Romano
     Brian Dennehy
     Peter Sohn
     Janeane Garofalo


標  簽 動畫 | 美國 | 笑劇 | pixar | 動畫片 | 美國電影 | 2007 | 皮克斯

簡  介

  小老鼠雷米在嗅覺方面有著無與倫比的天賦,不想過與渣滓堆為伴的生活,心胸成為五星大廚的胡想。
  一個偶然的機遇,他熟悉了古斯特餐廳的學徒林奎尼,這個倒霉的學徒素性害臊,在廚藝上更是沒有什么天賦,而且遭到餐廳大廚的排擠,行將被解雇。這一人一鼠結成了奇異的同盟:雷米奉獻自己極富締造力的大腦。操縱林奎尼前臺“表演”。
  在雷米的幫助下,林奎尼不單成為新的“天賦廚師”,獲得了美男同事的戀愛,還挫敗了大廚的詭計,成為古斯特餐廳的正當繼續人。突如起來的成功讓林奎尼有些手足無措,想擺脫自己的傀儡身份,把雷米趕出了廚房。
  古斯特餐廳的成功,引發了刻薄的美食批評家科隆的留意,預備一嘗林奎尼的技術,重新為餐廳評定星級;而不甘失利的前大廚,捋臂張拳,想要找到林奎尼一夜成名的奧秘。落空了雷米,林奎尼該若何面臨這些題目……

獲獎情況

  第80屆奧斯卡金像獎(2008)
  最好原創劇本(提名) 簡·皮克瓦 / 布拉德·伯德
  最好動畫長片 布拉德·伯德
  最好混音(提名) 蘭迪·湯姆 / Doc Kane / 邁克爾·斯曼外科
  最好音效剪輯(提名) 蘭迪·湯姆 / 邁克爾·席維斯
  最好原創配樂(提名) 邁克·吉亞奇諾

  第61屆英國電影學院獎(2008)
  電影獎 最好動畫片 布拉德·伯德

  第35屆動畫安妮獎(2008)
  最好動畫長片
  最好導演 布拉德·伯德
  最好編劇 布拉德·伯德
  最好配音 伊安·霍姆
  最好配音(提名) 詹妮安·加羅法洛 / 帕頓·奧斯瓦爾特
  最好配樂 邁克·吉亞奇諾
  最好分鏡 泰德·馬托特
  最好藝術指導 哈雷·杰斯普
  最好動畫腳色(提名) Michal Makarewicz
  最好腳色設想 Carter Goodrich
  最好動畫結果(提名) Gary Bruins / Jon Reisch

  第8屆美國電影學會獎(2007)
  年度佳片
  • Video
  • ID             : 1
  • Format           : HEVC
  • Format/Info          : High Efficiency Video Coding
  • Format profile         : Main <a href="/cdn-cgi/l/email-protection" class="__cf_email__" data-cfemail="774647373b425946">[email protected]</a>@High
  • HDR format           : SMPTE ST 2086, HDR10 compatible
  • Codec ID           : V_MPEGH/ISO/HEVC
  • Duration           : 1 h 51 min
  • Bit rate           : 43.4 Mb/s
  • Width            : 3 840 pixels
  • Height           : 2 160 pixels
  • Display aspect ratio       : 16:9
  • Frame rate mode        : Constant
  • Frame rate           : 23.976 (24000/1001) FPS
  • Color space          : YUV
  • Chroma subsampling       : 4:2:0 (Type 2)
  • Bit depth          : 10 bits
  • Bits/(Pixel*Frame)       : 0.218
  • Stream size          : 33.7 GiB (77%)
  • Title            : Ratatouille.2007.2160p.BluRay.REMUX.HEVC.TrueHD.7.1.Atmos-FGT
  • Writing library        : ATEME Titan File 3.9.0 (4.9.0.0)
  • Language           : English
  • Default            : No
  • Forced           : No
  • Color range          : Limited
  • Color primaries        : BT.2020
  • Transfer characteristics     : PQ
  • Matrix coefficients        : BT.2020 non-constant
  • Mastering display color primaries  : Display P3
  • Mastering display luminance    : min: 0.0000 cd/m2, max: 1000 cd/m2
  • Audio #1
  • ID             : 2
  • Format           : MLP FBA 16-ch
  • Format/Info          : Meridian Lossless Packing FBA with 16-channel presentation
  • Commercial name        : Dolby TrueHD with Dolby Atmos
  • Codec ID           : A_TRUEHD
  • Duration           : 1 h 51 min
  • Bit rate mode          : Variable
  • Bit rate           : 7 350 kb/s
  • Maximum bit rate         : 6 972 kb/s
  • Channel(s)           : 8 channels
  • Channel layout         : L R C LFE Ls Rs Lb Rb
  • Sampling rate          : 48.0 kHz
  • Frame rate           : 1 200.000 FPS (40 SPF)
  • Compression mode         : Lossless
  • Stream size          : 5.70 GiB (13%)
  • Title            : Ratatouille.2007.2160p.BluRay.REMUX.HEVC.TrueHD.7.1.Atmos-FGT
  • Language           : English
  • Default            : Yes
  • Forced           : No
  • Number of dynamic objects      : 13
  • Bed channel count        : 1 channel
  • Bed channel configuration      : LFE
  • Audio #2
  • ID             : 3
  • Format           : AC-3
  • Format/Info          : Audio Coding 3
  • Commercial name        : Dolby Digital
  • Codec ID           : A_AC3
  • Duration           : 1 h 51 min
  • Bit rate mode          : Constant
  • Bit rate           : 640 kb/s
  • Channel(s)           : 6 channels
  • Channel layout         : L R C LFE Ls Rs
  • Sampling rate          : 48.0 kHz
  • Frame rate           : 31.250 FPS (1536 SPF)
  • Bit depth          : 16 bits
  • Compression mode         : Lossy
  • Stream size          : 509 MiB (1%)
  • Title            : Ratatouille.2007.2160p.BluRay.REMUX.HEVC.TrueHD.7.1.Atmos-FGT
  • Language           : English
  • Service kind         : Complete Main
  • Default            : No
  • Forced           : No
  • Audio #3
  • ID             : 4
  • Format           : DTS ES XBR
  • Format/Info          : Digital Theater Systems
  • Commercial name        : DTS-HD High Resolution Audio
  • Codec ID           : A_DTS
  • Duration           : 1 h 51 min
  • Bit rate mode          : Constant
  • Bit rate           : 2 046 kb/s
  • Channel(s)           : 6 channels
  • Channel(s)_Original        : 7 channels
  • Channel layout         : C L R Ls Rs LFE Cb
  • Sampling rate          : 48.0 kHz
  • Frame rate           : 93.750 FPS (512 SPF)
  • Bit depth          : 24 bits
  • Compression mode         : Lossy
  • Stream size          : 1.59 GiB (4%)
  • Title            : Ratatouille.2007.2160p.BluRay.REMUX.HEVC.TrueHD.7.1.Atmos-FGT
  • Language           : English
  • Default            : No
  • Forced           : No
  • Audio #4
  • ID             : 5
  • Format           : AC-3
  • Format/Info          : Audio Coding 3
  • Commercial name        : Dolby Digital
  • Codec ID           : A_AC3
  • Duration           : 1 h 51 min
  • Bit rate mode          : Constant
  • Bit rate           : 640 kb/s
  • Channel(s)           : 6 channels
  • Channel layout         : L R C LFE Ls Rs
  • Sampling rate          : 48.0 kHz
  • Frame rate           : 31.250 FPS (1536 SPF)
  • Bit depth          : 16 bits
  • Compression mode         : Lossy
  • Delay relative to video      : 834 ms
  • Stream size          : 508 MiB (1%)
  • Title            : Ratatouille.2007.2160p.BluRay.REMUX.HEVC.TrueHD.7.1.Atmos-FGT
  • Language           : English
  • Service kind         : Complete Main
  • Default            : No
  • Forced           : No
  • Audio #5
  • ID             : 6
  • Format           : AC-3
  • Format/Info          : Audio Coding 3
  • Commercial name        : Dolby Digital
  • Codec ID           : A_AC3
  • Duration           : 1 h 51 min
  • Bit rate mode          : Constant
  • Bit rate           : 320 kb/s
  • Channel(s)           : 2 channels
  • Channel layout         : L R
  • Sampling rate          : 48.0 kHz
  • Frame rate           : 31.250 FPS (1536 SPF)
  • Bit depth          : 16 bits
  • Compression mode         : Lossy
  • Stream size          : 254 MiB (1%)
  • Title            : Ratatouille.2007.2160p.BluRay.REMUX.HEVC.TrueHD.7.1.Atmos-FGT
  • Language           : English
  • Service kind         : Complete Main
  • Default            : No
  • Forced           : No
  • Audio #6
  • ID             : 7
  • Format           : AC-3
  • Format/Info          : Audio Coding 3
  • Commercial name        : Dolby Digital
  • Codec ID           : A_AC3
  • Duration           : 1 h 51 min
  • Bit rate mode          : Constant
  • Bit rate           : 320 kb/s
  • Channel(s)           : 2 channels
  • Channel layout         : L R
  • Sampling rate          : 48.0 kHz
  • Frame rate           : 31.250 FPS (1536 SPF)
  • Bit depth          : 16 bits
  • Compression mode         : Lossy
  • Stream size          : 254 MiB (1%)
  • Title            : Ratatouille.2007.2160p.BluRay.REMUX.HEVC.TrueHD.7.1.Atmos-FGT
  • Language           : English
  • Service kind         : Complete Main
  • Default            : No
  • Forced           : No
  • Audio #7
  • ID             : 8
  • Format           : AC-3
  • Format/Info          : Audio Coding 3
  • Commercial name        : Dolby Digital
  • Codec ID           : A_AC3
  • Duration           : 1 h 51 min
  • Bit rate mode          : Constant
  • Bit rate           : 640 kb/s
  • Channel(s)           : 6 channels
  • Channel layout         : L R C LFE Ls Rs
  • Sampling rate          : 48.0 kHz
  • Frame rate           : 31.250 FPS (1536 SPF)
  • Bit depth          : 16 bits
  • Compression mode         : Lossy
  • Stream size          : 509 MiB (1%)
  • Title            : Ratatouille.2007.2160p.BluRay.REMUX.HEVC.TrueHD.7.1.Atmos-FGT
  • Language           : French
  • Service kind         : Complete Main
  • Default            : No
  • Forced           : No
  • Audio #8
  • ID             : 9
  • Format           : AC-3
  • Format/Info          : Audio Coding 3
  • Commercial name        : Dolby Digital
  • Codec ID           : A_AC3
  • Duration           : 1 h 51 min
  • Bit rate mode          : Constant
  • Bit rate           : 640 kb/s
  • Channel(s)           : 6 channels
  • Channel layout         : L R C LFE Ls Rs
  • Sampling rate          : 48.0 kHz
  • Frame rate           : 31.250 FPS (1536 SPF)
  • Bit depth          : 16 bits
  • Compression mode         : Lossy
  • Stream size          : 509 MiB (1%)
  • Title            : Ratatouille.2007.2160p.BluRay.REMUX.HEVC.TrueHD.7.1.Atmos-FGT
  • Language           : Spanish
  • Service kind         : Complete Main
  • Default            : No
  • Forced           : No
  • Text #1
  • ID             : 10
  • Format           : UTF-8
  • Codec ID           : S_TEXT/UTF8
  • Codec ID/Info          : UTF-8 Plain Text
  • Duration           : 1 h 42 min
  • Bit rate           : 64 b/s
  • Count of elements        : 1328
  • Stream size          : 48.3 KiB (0%)
  • Title            : English-SRT
  • Language           : English
  • Default            : Yes
  • Forced           : No
  • Text #2
  • ID             : 11
  • Format           : PGS
  • Muxing mode          : zlib
  • Codec ID           : S_HDMV/PGS
  • Codec ID/Info          : Picture based subtitle format used on BDs/HD-DVDs
  • Duration           : 1 h 42 min
  • Bit rate           : 45.2 kb/s
  • Count of elements        : 3180
  • Stream size          : 33.0 MiB (0%)
  • Title            : English-PGS
  • Language           : English
  • Default            : No
  • Forced           : No
  • Text #3
  • ID             : 12
  • Format           : PGS
  • Muxing mode          : zlib
  • Codec ID           : S_HDMV/PGS
  • Codec ID/Info          : Picture based subtitle format used on BDs/HD-DVDs
  • Duration           : 1 h 42 min
  • Bit rate           : 39.8 kb/s
  • Count of elements        : 2600
  • Stream size          : 29.0 MiB (0%)
  • Title            : French-PGS
  • Language           : French
  • Default            : No
  • Forced           : No
  • Text #4
  • ID             : 13
  • Format           : PGS
  • Muxing mode          : zlib
  • Codec ID           : S_HDMV/PGS
  • Codec ID/Info          : Picture based subtitle format used on BDs/HD-DVDs
  • Duration           : 1 h 42 min
  • Bit rate           : 39.2 kb/s
  • Count of elements        : 2604
  • Stream size          : 28.6 MiB (0%)
  • Title            : Spanish-PGS
  • Language           : Spanish
  • Default            : No
  • Forced           : No
  • Menu
  • 00:00:00.000         : en:Chapter 01
  • 00:01:16.701         : en:Chapter 02
  • 00:06:30.223         : en:Chapter 03
  • 00:09:23.729         : en:Chapter 04
  • 00:10:58.532         : en:Chapter 05
  • 00:13:31.519         : en:Chapter 06
  • 00:17:40.851         : en:Chapter 07
  • 00:19:38.343         : en:Chapter 08
  • 00:24:49.154         : en:Chapter 09
  • 00:28:56.067         : en:Chapter 10
  • 00:33:05.775         : en:Chapter 11
  • 00:38:14.250         : en:Chapter 12
  • 00:40:33.722         : en:Chapter 13
  • 00:44:12.066         : en:Chapter 14
  • 00:47:00.108         : en:Chapter 15
  • 00:51:28.502         : en:Chapter 16
  • 00:57:03.002         : en:Chapter 17
  • 00:59:33.152         : en:Chapter 18
  • 01:00:54.359         : en:Chapter 19
  • 01:07:20.578         : en:Chapter 20
  • 01:11:26.490         : en:Chapter 21
  • 01:15:29.066         : en:Chapter 22
  • 01:19:25.927         : en:Chapter 23
  • 01:23:30.964         : en:Chapter 24
  • 01:25:35.296         : en:Chapter 25
  • 01:28:19.168         : en:Chapter 26
  • 01:32:39.595         : en:Chapter 27
  • 01:35:41.944         : en:Chapter 28
  • 01:38:50.341         : en:Chapter 29
  • 01:40:55.507         : en:Chapter 30
  • 01:42:59.798         : en:Chapter 31













分享到:  QQ好友和群QQ好友和群
收藏收藏
字幕下載網站---點這里進入
回復

使用道具 舉報

您需要登錄后才可以回帖 登錄 | 立即注冊

本版積分規則

QQ|Archiver|手機版|小黑屋|藍光電影網

GMT+8, 2019-12-5 00:49 , Processed in 0.054480 second(s), 20 queries .

Powered by Discuz! X3.4

© 2001-2017 Comsenz Inc.

快速回復 返回頂部 返回列表
中原风釆22选5走势图