藍光電影網

 找回密碼
 立即注冊

QQ登錄

只需一步,快速開始

搜索
熱搜: 活動 交友 discuz
查看: 380|回復: 0
打印 上一主題 下一主題

[喜劇片] 冒牌天神2/全能者埃文 Evan.Almighty.2007.1080p.BluRay.x264.DTS-FGT 9.07GB

[復制鏈接]

 成長值: 10

2萬

主題

2萬

帖子

3萬

積分

管理員

Rank: 9Rank: 9Rank: 9

積分
32956
跳轉到指定樓層
1#
發表于 2019-7-2 15:10:32 | 只看該作者 |只看大圖 回帖獎勵 |倒序瀏覽 |閱讀模式

◎譯  名 冒牌天神2/萬能者埃文/王牌天神續集/嚟多件衰鬼天主
◎片  名 Evan Almighty
◎年  代 2007
◎國  家 美國
◎類  別 笑劇/家庭/奇異
◎語  言 英語
◎上映日期 2007-06-22(美國)
◎IMDb評分5.4/10 from 107,266 users
◎IMDb鏈接http://www.imdb.com/title/tt0413099/
◎豆瓣評分 6.5/10 from 24,838 users
◎豆瓣鏈接 http://movie.douban.com/subject/1867332/
◎片  長 96 分鐘
◎導  演 湯姆·沙迪亞克 Tom Shadyac
◎主  演 史蒂夫·卡瑞爾 Steve Carell
      摩根·弗里曼 Morgan Freeman
      勞倫·格拉漢姆 Lauren Graham
      約翰尼·西蒙斯 Johnny Simmons
      約翰·古德曼 John Goodman
      旺達·塞克絲 Wanda Sykes
      喬納·希爾 Jonah Hill
      莫莉·香儂 Molly Shannon
◎簡  介
  曾在直播節目中大出其丑的主播埃文·巴克斯特(史蒂夫·卡瑞爾 Steve Carell 飾)走下演播臺,起頭轉戰官場,并成功被選布法羅的議員。他盡力打造自己的杰出形象,以“改變天下”的口號贏得選民的支持,同時這也是夜晚睡前祈禱的內容。在此以后,埃文帶著一家四口人來到弗吉尼亞州的亨茨維爾小鎮居住,行將展開全新的政壇生活。
  埃文的仕途順風逆水,剛剛走頓時任就獲得呼風喚雨的朗議員(約翰·古德曼 John Goodman 飾)的重視,成為最新議案的配合倡議人。正在這關鍵時辰,天主(摩根·弗里曼 Morgan Freeman 飾)卻忽然出現在埃文眼前,他只被要求干一件事,那就是建造一艘方舟。埃文的生活自此起了天翻地覆的變化……
◎獲獎情況
  第16屆MTV電影獎 (2007)
  MTV電影獎 尚未公映的最好暑期電影(提名)
Video
ID             : 1
Format           : AVC
Format/Info          : Advanced Video Codec
Format profile         : [email protected]
Format settings, CABAC       : Yes
Format settings, ReFrames      : 5 frames
Codec ID           : V_MPEG4/ISO/AVC
Duration           : 1h 35mn
Bit rate           : 11.8 Mbps
Width            : 1 920 pixels
Height           : 816 pixels
Display aspect ratio       : 2.35:1
Frame rate mode        : Constant
Frame rate           : 23.976 fps
Color space          : YUV
Chroma subsampling       : 4:2:0
Bit depth          : 8 bits
Scan type          : Progressive
Bits/(Pixel*Frame)       : 0.314
Stream size          : 7.88 GiB (87%)
Writing library        : x264 core 130 r2274+704+40 57838ff tMod+MixAQ [[email protected] X86_64]
Encoding settings        : cabac=1 / ref=5 / deblock=1:-2:-2 / analyse=0x3:0x133 / me=umh / subme=10 / psy=1 / fade_compensate=0.00 / psy_rd=1.00:0.03 / mixed_ref=1 / me_range=32 / chroma_me=1 / trellis=2 / 8x8dct=1 / cqm=0 / deadzone=21,11 / fast_pskip=0 / chroma_qp_offset=-3 / threads=12 / lookahead_threads=2 / sliced_threads=0 / nr=0 / decimate=1 / interlaced=0 / bluray_compat=0 / constrained_intra=0 / fgo=0 / bframes=9 / b_pyramid=2 / b_adapt=2 / b_bias=0 / direct=3 / weightb=1 / open_gop=0 / weightp=2 / keyint=240 / keyint_min=23 / scenecut=40 / intra_refresh=0 / rc=crf / mbtree=0 / crf=16.8700 / qcomp=0.60 / qpmin=0 / qpmax=69 / qpstep=4 / ip_ratio=1.30 / pb_ratio=1.20 / aq=4:0.80 / aq-sensitivity=10.00 / aq-ifactor=1.00 / aq-pfactor=1.00 / aq-bfactor=1.00 / aq2=0
Language           : English
Default            : Yes
Forced           : No
Audio
ID             : 2
Format           : DTS
Format/Info          : Digital Theater Systems
Mode             : 16
Format settings, Endianness    : Big
Codec ID           : A_DTS
Duration           : 1h 35mn
Bit rate mode          : Constant
Bit rate           : 1 509 Kbps
Channel(s)           : 6 channels
Channel positions        : Front: L C R, Side: L R, LFE
Sampling rate          : 48.0 KHz
Bit depth          : 24 bits
Compression mode         : Lossy
Stream size          : 1.01 GiB (11%)
Language           : English
Default            : Yes
Forced           : No
Text
ID             : 3
Format           : UTF-8
Codec ID           : S_TEXT/UTF8
Codec ID/Info          : UTF-8 Plain Text
Language           : English
Default            : No
Forced           : No
Menu
00:00:00.000         : en:1. Change the World! (Main Titles)
00:03:37.050         : en:2. A New Home
00:10:03.144         : en:3. Cosponsoring a Bill
00:14:00.506         : en:4. Genesis 6:14
00:18:23.227         : en:5. Committee Meeting
00:23:02.506         : en:6. Lucky Day
00:29:27.849         : en:7. The Chosen One
00:33:40.769         : en:8. Ark Building for Dummies
00:38:14.209         : en:9. Construction Project
00:42:04.564         : en:10. Running With the Pack
00:44:59.739         : en:11. Ask and You Shall Receive
00:50:12.384         : en:12. Back to Work
00:56:16.081         : en:13. It\ s Because of Him
01:02:20.528         : en:14. Together Again
01:07:21.412         : en:15. Cutting Corners
01:11:02.800         : en:16. The Flood Is Imminent
01:16:11.025         : en:17. Get on the Ark
01:20:59.104         : en:18. A Little Help
01:23:52.986         : en:19. Capitol Hill
01:28:40.690         : en:20. Thou Shalt Do the Dance (End Titles)


                          






分享到:  QQ好友和群QQ好友和群
收藏收藏
字幕下載網站---點這里進入
回復

使用道具 舉報

您需要登錄后才可以回帖 登錄 | 立即注冊

本版積分規則

QQ|Archiver|手機版|小黑屋|藍光電影網

GMT+8, 2019-8-23 14:49 , Processed in 0.060593 second(s), 23 queries .

Powered by Discuz! X3.4

© 2001-2017 Comsenz Inc.

快速回復 返回頂部 返回列表
中原风釆22选5走势图