藍光電影網

 找回密碼
 立即注冊

QQ登錄

只需一步,快速開始

搜索
熱搜: 活動 交友 discuz
查看: 401|回復: 1
打印 上一主題 下一主題

[犯罪片] 一級恐懼/驚悚/致命內情 Primal.Fear.1996.1080p.BluRay.x264.DTS-FGT 12.7GB

[復制鏈接]

 成長值: 10

2萬

主題

2萬

帖子

3萬

積分

管理員

Rank: 9Rank: 9Rank: 9

積分
32956
跳轉到指定樓層
1#
發表于 2019-7-2 15:09:55 | 只看該作者 |只看大圖 回帖獎勵 |倒序瀏覽 |閱讀模式

◎譯  名 一級恐懼/驚悚/致命內幕
◎片  名 Primal Fear
◎年  代 1996
◎國  家 美國
◎類  別 犯罪/劇情/懸疑/驚悚
◎語  言 英語/西班牙語
◎上映日期 1996-04-03(美國)
◎IMDb評分7.7/10 from 118,050 users
◎IMDb鏈接http://www.imdb.com/title/tt0117381/
◎豆瓣評分 8.3/10 from 60,933 users
◎豆瓣鏈接 http://movie.douban.com/subject/1296217/
◎片  長 129 分鐘
◎導  演 格里高利·霍布里特 Gregory Hoblit
◎主  演 理查·基爾 Richard Gere
      勞拉·琳妮 Laura Linney
      約翰·馬奧尼 John Mahoney
      阿爾法·伍達德 Alfre Woodard
      弗蘭西斯·麥克多蒙德 Frances McDormand
      愛德華·諾頓 Edward Norton
      特瑞·歐奎恩 Terry O Quinn
      安德魯·布勞爾 Andre Braugher
      斯蒂文·鮑爾 Steven Bauer
      喬·斯帕諾 Joe Spano
      托尼·普拉納 Tony Plana
      斯坦利·安德森 Stanley Anderson
      毛拉·蒂爾內 Maura Tierney
      喬恩·塞達 Jon Seda
      瑞格·羅杰斯 Reg Rogers
◎簡  介
  芝加哥發生了一樁震動全城的可駭血案。當地一間教堂的主教羅森慘遭殺戮,身上被刻上奧秘數字,警方拘系了那時在場身染血跡的犯罪懷疑人阿倫( Edward Norton 飾)。馬丁(理查?基爾 Richard Gere 飾)作為阿倫的辯解律師,和他的前女友檢控官珍妮特較上了勁。
  馬丁并不在意究竟,他為阿倫辯解的唯一目標就是要贏得訟事,讓自己一戰成名。而珍妮特作為正義的代表固然寸步不讓。珍妮特(勞拉?琳妮 Laura Linney 飾)觀察得知羅森主教生前曾對阿倫等人停止性加害,而阿倫關于自己得了“時候失憶”癥的辯解亦顯得荒謬,關于他提到的兇案證人一向都未找到。珍妮特以為殺人動機等一切證據俱全。
  馬丁捏詞阿倫患神經病使其成功脫罪,但是,一切皆出人料想。
◎獲獎情況
  第69屆奧斯卡金像獎 (1997)
  最好男配角(提名) 愛德華·諾頓
Video
ID             : 1
Format           : AVC
Format/Info          : Advanced Video Codec
Format profile         : [email protected]
Format settings, CABAC       : Yes
Format settings, ReFrames      : 4 frames
Codec ID           : V_MPEG4/ISO/AVC
Duration           : 2h 10mn
Bit rate           : 12.4 Mbps
Width            : 1 920 pixels
Height           : 1 080 pixels
Display aspect ratio       : 16:9
Frame rate mode        : Constant
Frame rate           : 23.976 fps
Color space          : YUV
Chroma subsampling       : 4:2:0
Bit depth          : 8 bits
Scan type          : Progressive
Bits/(Pixel*Frame)       : 0.250
Stream size          : 11.1 GiB (87%)
Writing library        : x264 core 67 r1165M 6841c5e
Encoding settings        : cabac=1 / ref=4 / deblock=1:-3:-3 / analyse=0x3:0x113 / me=umh / subme=9 / psy_rd=1.0:0.0 / mixed_ref=1 / me_range=32 / chroma_me=1 / trellis=2 / 8x8dct=1 / cqm=0 / deadzone=21,11 / chroma_qp_offset=-2 / threads=6 / nr=0 / decimate=1 / mbaff=0 / bframes=3 / b_pyramid=1 / b_adapt=2 / b_bias=0 / direct=3 / wpredb=1 / keyint=250 / keyint_min=25 / scenecut=40 / rc=2pass / bitrate=12428 / ratetol=1.0 / qcomp=0.60 / qpmin=10 / qpmax=51 / qpstep=4 / cplxblur=20.0 / qblur=0.5 / ip_ratio=1.40 / pb_ratio=1.30 / aq=1:0.80
Language           : English
Default            : Yes
Forced           : No
Audio
ID             : 2
Format           : DTS
Format/Info          : Digital Theater Systems
Mode             : 16
Format settings, Endianness    : Big
Codec ID           : A_DTS
Duration           : 2h 10mn
Bit rate mode          : Constant
Bit rate           : 1 510 Kbps
Channel(s)           : 6 channels
Channel positions        : Front: L C R, Side: L R, LFE
Sampling rate          : 48.0 KHz
Bit depth          : 24 bits
Compression mode         : Lossy
Stream size          : 1.38 GiB (11%)
Language           : English
Default            : Yes
Forced           : No
Text #1
ID             : 3
Format           : UTF-8
Codec ID           : S_TEXT/UTF8
Codec ID/Info          : UTF-8 Plain Text
Language           : English
Default            : No
Forced           : No
Text #2
ID             : 4
Format           : UTF-8
Codec ID           : S_TEXT/UTF8
Codec ID/Info          : UTF-8 Plain Text
Language           : French
Default            : No
Forced           : No
Text #3
ID             : 5
Format           : UTF-8
Codec ID           : S_TEXT/UTF8
Codec ID/Info          : UTF-8 Plain Text
Language           : Portuguese
Default            : No
Forced           : No
Text #4
ID             : 6
Format           : UTF-8
Codec ID           : S_TEXT/UTF8
Codec ID/Info          : UTF-8 Plain Text
Language           : Spanish
Default            : No
Forced           : No
Menu
00:00:00.000         : en:00:00:00.000
00:01:39.099         : en:00:01:39.099
00:08:00.438         : en:00:08:00.438
00:10:00.058         : en:00:10:00.058
00:12:48.309         : en:00:12:48.309
00:17:45.940         : en:00:17:45.940
00:24:19.500         : en:00:24:19.500
00:31:55.705         : en:00:31:55.705
00:34:31.903         : en:00:34:31.903
00:35:36.343         : en:00:35:36.343
00:39:44.090         : en:00:39:44.090
00:47:32.058         : en:00:47:32.058
00:52:55.839         : en:00:52:55.839
00:57:29.905         : en:00:57:29.905
01:00:14.402         : en:01:00:14.402
01:03:38.690         : en:01:03:38.690
01:11:51.974         : en:01:11:51.974
01:19:44.822         : en:01:19:44.822
01:24:07.459         : en:01:24:07.459
01:30:25.962         : en:01:30:25.962
01:35:58.586         : en:01:35:58.586
01:42:41.155         : en:01:42:41.155
01:49:05.956         : en:01:49:05.956
01:55:05.941         : en:01:55:05.941
01:59:48.556         : en:01:59:48.556
02:06:41.594         : en:02:06:41.594


                          







分享到:  QQ好友和群QQ好友和群
收藏收藏
字幕下載網站---點這里進入
回復

使用道具 舉報

您需要登錄后才可以回帖 登錄 | 立即注冊

本版積分規則

QQ|Archiver|手機版|小黑屋|藍光電影網

GMT+8, 2019-8-23 14:50 , Processed in 0.060025 second(s), 23 queries .

Powered by Discuz! X3.4

© 2001-2017 Comsenz Inc.

快速回復 返回頂部 返回列表
中原风釆22选5走势图