藍光電影網

 找回密碼
 立即注冊

QQ登錄

只需一步,快速開始

搜索
熱搜: 活動 交友 discuz
查看: 199|回復: 1
打印 上一主題 下一主題

[犯罪片] 愛人別出聲/移魂劫 Shattered.1991.1080p.BluRay.x264.DTS-FGT 8.75GB

[復制鏈接]

2萬

主題

2萬

帖子

3萬

積分

管理員

Rank: 9Rank: 9Rank: 9

積分
32250
跳轉到指定樓層
1#
發表于 2019-7-2 15:08:39 | 只看該作者 |只看大圖 回帖獎勵 |倒序瀏覽 |閱讀模式

◎譯  名 愛人別作聲/移魂劫
◎片  名 Shattered
◎年  代 1991
◎國  家 美國
◎類  別 犯罪/懸疑/驚悚
◎語  言 英語
◎上映日期 1991-09-25
◎IMDb評分6.5/10 from 5,815 users
◎IMDb鏈接http://www.imdb.com/title/tt0102900/
◎豆瓣評分 6.8/10 from 51 users
◎豆瓣鏈接 http://movie.douban.com/subject/1302234/
◎片  長 98 分鐘
◎導  演 沃爾夫岡·彼德森 Wolfgang Petersen
◎主  演 格列塔·斯卡奇 Greta Scacchi
      湯姆·貝倫杰 Tom Berenger
      鮑勃·霍斯金斯 Bob Hoskins
◎簡  介
  丹麥利克是個成功的修建師,在一次車禍意外,他連人代車直落山崖,數個月昏迷不醒而更嚴重的是他完全沒法記憶曩昔的一切,面部嚴重摔傷還必須經過無數次的整容才能規復原狀。但他太太和同車的同事卻僅受些微皮肉之傷......這一部融合豪情、謀殺、懸疑的現代奇情片,描寫一位男人在車禍后落空記憶新熟悉自己及情況的進程,劇情盤曲古怪,生氣撲朔迷離,兇手的動機更是難以捉摸,非到最初一刻,究竟沒法內情畢露,愛好西區考克式的觀眾必不舍得錯過。
Video
ID             : 1
Format           : AVC
Format/Info          : Advanced Video Codec
Format profile         : [email protected]
Format settings, CABAC       : Yes
Format settings, ReFrames      : 4 frames
Codec ID           : V_MPEG4/ISO/AVC
Duration           : 1h 38mn
Bit rate           : 11.3 Mbps
Width            : 1 920 pixels
Height           : 1 080 pixels
Display aspect ratio       : 16:9
Frame rate mode        : Constant
Frame rate           : 23.976 fps
Color space          : YUV
Chroma subsampling       : 4:2:0
Bit depth          : 8 bits
Scan type          : Progressive
Bits/(Pixel*Frame)       : 0.226
Stream size          : 7.54 GiB (86%)
Writing library        : x264 core 122 r2184 5c85e0a
Encoding settings        : cabac=1 / ref=4 / deblock=1:-2:-2 / analyse=0x3:0x113 / me=umh / subme=10 / psy=1 / psy_rd=1.20:0.20 / mixed_ref=1 / me_range=32 / chroma_me=1 / trellis=2 / 8x8dct=1 / cqm=0 / deadzone=21,11 / fast_pskip=0 / chroma_qp_offset=-3 / threads=6 / sliced_threads=0 / nr=0 / decimate=0 / interlaced=0 / bluray_compat=0 / constrained_intra=0 / bframes=5 / b_pyramid=2 / b_adapt=2 / b_bias=0 / direct=3 / weightb=1 / open_gop=0 / weightp=2 / keyint=240 / keyint_min=1 / scenecut=40 / intra_refresh=0 / rc_lookahead=72 / rc=2pass / mbtree=1 / bitrate=11258 / ratetol=1.0 / qcomp=0.60 / qpmin=10 / qpmax=51 / qpstep=4 / cplxblur=20.0 / qblur=0.5 / vbv_maxrate=38000 / vbv_bufsize=38000 / nal_hrd=none / ip_ratio=1.40 / aq=1:1.00
Language           : English
Default            : Yes
Forced           : No
Audio
ID             : 2
Format           : DTS
Format/Info          : Digital Theater Systems
Mode             : 16
Format settings, Endianness    : Big
Codec ID           : A_DTS
Duration           : 1h 38mn
Bit rate mode          : Constant
Bit rate           : 1 509 Kbps
Channel(s)           : 6 channels
Channel positions        : Front: L C R, Side: L R, LFE
Sampling rate          : 48.0 KHz
Bit depth          : 16 bits
Compression mode         : Lossy
Stream size          : 1.03 GiB (12%)
Language           : English
Default            : No
Forced           : No
Text
ID             : 3
Format           : UTF-8
Codec ID           : S_TEXT/UTF8
Codec ID/Info          : UTF-8 Plain Text
Language           : English
Default            : No
Forced           : No
Menu
00:00:00.000         : en:00:00:00.000
00:06:58.460         : en:00:06:58.460
00:24:32.221         : en:00:24:32.221
00:27:31.859         : en:00:27:31.859
00:37:11.312         : en:00:37:11.312
00:56:51.575         : en:00:56:51.575
01:08:17.218         : en:01:08:17.218
01:16:27.166         : en:01:16:27.166


                          





分享到:  QQ好友和群QQ好友和群
收藏收藏
字幕下載網站---點這里進入
回復

使用道具 舉報

您需要登錄后才可以回帖 登錄 | 立即注冊

本版積分規則

QQ|Archiver|手機版|小黑屋|藍光電影網

GMT+8, 2019-8-21 07:58 , Processed in 0.054644 second(s), 20 queries .

Powered by Discuz! X3.4

© 2001-2017 Comsenz Inc.

快速回復 返回頂部 返回列表
中原风釆22选5走势图