藍光電影網

 找回密碼
 立即注冊

QQ登錄

只需一步,快速開始

搜索
熱搜: 活動 交友 discuz
查看: 264|回復: 3
打印 上一主題 下一主題

[喜劇片] 斯坦·海爾辛 Stan.Helsing.2009.1080p.BluRay.x264.DTS-FGT 7.92GB

[復制鏈接]

 成長值: 10

2萬

主題

2萬

帖子

3萬

積分

管理員

Rank: 9Rank: 9Rank: 9

積分
32956
跳轉到指定樓層
1#
發表于 2019-7-2 15:08:06 | 只看該作者 |只看大圖 回帖獎勵 |倒序瀏覽 |閱讀模式

◎譯  名 斯坦·海爾辛
◎片  名 Stan Helsing
◎年  代 2009
◎國  家 加拿大/美國
◎類  別 笑劇/可駭
◎語  言 英語
◎上映日期 2009-10-09
◎IMDb評分3.6/10 from 9,313 users
◎IMDb鏈接http://www.imdb.com/title/tt1185266/
◎豆瓣評分 4.9/10 from 961 users
◎豆瓣鏈接 http://movie.douban.com/subject/2983985/
◎片  長 108 分鐘/USA: 90 分鐘(Showtime version)
◎導  演 Bo Zenga
◎主  演 Diora Baird
      Steve Howey
◎簡  介
  杰克船主、黑超人等一眾山寨豪杰齊聚一堂,與美國史上最邪惡的可駭片BOSS展開一場大對決。
  惡搞還需要劇情嗎?
Video
ID             : 1
Format           : AVC
Format/Info          : Advanced Video Codec
Format profile         : [email protected]
Format settings, CABAC       : Yes
Format settings, ReFrames      : 4 frames
Codec ID           : V_MPEG4/ISO/AVC
Duration           : 1h 30mn
Bit rate           : 11.0 Mbps
Width            : 1 920 pixels
Height           : 1 038 pixels
Display aspect ratio       : 1.85:1
Frame rate mode        : Constant
Frame rate           : 23.976 fps
Color space          : YUV
Chroma subsampling       : 4:2:0
Bit depth          : 8 bits
Scan type          : Progressive
Bits/(Pixel*Frame)       : 0.231
Stream size          : 6.81 GiB (86%)
Writing library        : x264 core 77 r1292M e381f6d
Encoding settings        : cabac=1 / ref=4 / deblock=1:-3:-3 / analyse=0x3:0x113 / me=umh / subme=9 / psy=1 / psy_rd=1.0:0.2 / mixed_ref=1 / me_range=32 / chroma_me=1 / trellis=2 / 8x8dct=1 / cqm=2 / deadzone=21,11 / chroma_qp_offset=-2 / threads=6 / nr=0 / decimate=0 / mbaff=0 / constrained_intra=0 / bframes=3 / b_pyramid=0 / b_adapt=2 / b_bias=0 / direct=2 / wpredb=1 / keyint=250 / keyint_min=25 / scenecut=40 / rc_lookahead=40 / rc=2pass / mbtree=1 / bitrate=11023 / ratetol=1.0 / qcomp=0.60 / qpmin=10 / qpmax=51 / qpstep=4 / cplxblur=20.0 / qblur=0.5 / vbv_maxrate=50000 / vbv_bufsize=50000 / ip_ratio=1.40 / aq=1:1.00
Language           : English
Default            : No
Forced           : No
Audio
ID             : 2
Format           : DTS
Format/Info          : Digital Theater Systems
Mode             : 16
Format settings, Endianness    : Big
Codec ID           : A_DTS
Duration           : 1h 30mn
Bit rate mode          : Constant
Bit rate           : 1 510 Kbps
Channel(s)           : 6 channels
Channel positions        : Front: L C R, Side: L R, LFE
Sampling rate          : 48.0 KHz
Bit depth          : 24 bits
Compression mode         : Lossy
Delay relative to video      : 11ms
Stream size          : 977 MiB (12%)
Language           : English
Default            : Yes
Forced           : No
Text
ID             : 3
Format           : UTF-8
Codec ID           : S_TEXT/UTF8
Codec ID/Info          : UTF-8 Plain Text
Language           : English
Default            : No
Forced           : No


                          




分享到:  QQ好友和群QQ好友和群
收藏收藏
字幕下載網站---點這里進入
回復

使用道具 舉報

您需要登錄后才可以回帖 登錄 | 立即注冊

本版積分規則

QQ|Archiver|手機版|小黑屋|藍光電影網

GMT+8, 2019-8-23 14:50 , Processed in 0.062323 second(s), 23 queries .

Powered by Discuz! X3.4

© 2001-2017 Comsenz Inc.

快速回復 返回頂部 返回列表
中原风釆22选5走势图