藍光電影網

 找回密碼
 立即注冊

QQ登錄

只需一步,快速開始

搜索
熱搜: 活動 交友 discuz
查看: 376|回復: 1
打印 上一主題 下一主題

[REMUX.HEVC] 蝙蝠俠與羅賓/蝙蝠俠4 Batman.and.Robin.1997.2160p.BluRay.REMUX.HEVC.DTS-HD.MA.TrueHD.7.1.Atmos-FGT 74.70GB

[復制鏈接]

2萬

主題

2萬

帖子

3萬

積分

管理員

Rank: 9Rank: 9Rank: 9

積分
31888
跳轉到指定樓層
1#
發表于 2019-6-5 16:08:54 | 只看該作者 |只看大圖 回帖獎勵 |倒序瀏覽 |閱讀模式


譯  名 蝙蝠俠與羅賓 / 蝙蝠俠4 / 蝙蝠俠4:急凍人 / 蝙蝠俠4:蝙蝠俠與羅賓
片  名 Batman & Robin
年  代 1997
產  地 美國 / 英國
類  別 行動 / 科幻
語  言 英語
上映日期 1997-06-20
IMDb評分3.7/10 from 218011 users
IMDb鏈接http://www.imdb.com/title/tt0118688
豆瓣評分 6.0/10 from 23027 users
豆瓣鏈接 https://movie.douban.com/subject/1294519/
片  長 125 分鐘
導  演 喬·舒馬赫 Joel Schumacher
編  劇 鮑勃·凱恩 Bob Kane / 阿齊瓦·高斯曼 Akiva Goldsman
主  演 阿諾·施瓦辛格 Arnold Schwarzenegger
      喬治·克魯尼 George Clooney
      克里斯·奧唐納 Chris O'Donnell
      烏瑪·瑟曼 Uma Thurman
      艾麗西亞·希爾維斯通 Alicia Silverstone
      邁克爾·高夫 Michael Gough
      帕特·亨格爾 Pat Hingle
      約翰·格洛弗 John Glover
      艾拉·麥克弗森 Elle Macpherson
      薇薇卡·福克斯 Vivica A. Fox
      溫德拉·科斯伯姆 Vendela Kirsebom Thomessen
      Elizabeth Sanders
      Jeep Swenson
      John Fink
      邁克爾·雷德·麥基 Michael Reid MacKay
      艾力克·洛伊德 Eric Lloyd


標  簽 科幻 | 美國 | 蝙蝠俠 | 行動 | 漫畫改編 | 1997 | 美國電影 | GeorgeClooney

簡  介

  蝙蝠俠(喬治?克魯尼 George Clooney 飾)和羅賓(克里斯?奧唐納 Chris O'Donnell 飾)此次碰到有生以來最大的應戰:“急凍人”(阿諾?施瓦辛格 Arnold Schwarzenegger 飾)!
“急凍人”原是一個科學奇才,但一次意外卻令他只能靠急救機械為生。更加糟糕的是,除非他將全部高譚市的溫度連結在零度以下,否則他心愛的妻子將永久不能醒來。“急凍人”起頭一步步建立自己的冷凍王國,蝙蝠俠將是這個計劃的最大障礙,“急凍人”迫切需要撤除這個眼中釘。
羅賓逐步成為蝙蝠俠的得力助手,兩人協力化解了“急凍人”的一次次詭計。但美艷的“毒藤女”(烏瑪?瑟曼 Uma Thurman 飾)的出現給羅賓和蝙蝠俠相互之間的關系帶來了危機:“毒藤女”操縱羅賓對她的情意,一步步設下圈套,誘使兩人相互猜疑。
蝙蝠俠和羅賓終極能否化解心結,克服“急凍人”和“毒藤女”?

  • Video
  • ID             : 1
  • Format           : HEVC
  • Format/Info          : High Efficiency Video Coding
  • Commercial name        : HDR10
  • Format profile         : Main <a href="/cdn-cgi/l/email-protection" class="__cf_email__" data-cfemail="c8f9f88884fde6f9">[email protected]</a>@High
  • Codec ID           : V_MPEGH/ISO/HEVC
  • Duration           : 2 h 4 min
  • Bit rate           : 71.9 Mb/s
  • Width            : 3 840 pixels
  • Height           : 2 160 pixels
  • Display aspect ratio       : 16:9
  • Frame rate mode        : Constant
  • Frame rate           : 23.976 (24000/1001) FPS
  • Color space          : YUV
  • Chroma subsampling       : 4:2:0 (Type 2)
  • Bit depth          : 10 bits
  • Bits/(Pixel*Frame)       : 0.362
  • Stream size          : 62.7 GiB (84%)
  • Title            : Batman.and.Robin.1997.2160p.BluRay.REMUX.HEVC.DTS-HD.MA.TrueHD.7.1.Atmos-FGT
  • Writing library        : ATEME Titan File 3.9.4 (4.9.4.6)
  • Language           : English
  • Default            : No
  • Forced           : No
  • Color range          : Limited
  • Color primaries        : BT.2020
  • Transfer characteristics     : PQ
  • Matrix coefficients        : BT.2020 non-constant
  • Mastering display color primaries  : Display P3
  • Mastering display luminance    : min: 0.0050 cd/m2, max: 4000 cd/m2
  • Maximum Content Light Level    : 1642 cd/m2
  • Maximum Frame-Average Light Level  : 167 cd/m2
  • Audio #1
  • ID             : 2
  • Format           : MLP FBA 16-ch
  • Format/Info          : Meridian Lossless Packing FBA with 16-channel presentation
  • Commercial name        : Dolby TrueHD with Dolby Atmos
  • Codec ID           : A_TRUEHD
  • Duration           : 2 h 4 min
  • Bit rate mode          : Variable
  • Bit rate           : 4 153 kb/s
  • Maximum bit rate         : 7 032 kb/s
  • Channel(s)           : 8 channels
  • Channel layout         : L R C LFE Ls Rs Lb Rb
  • Sampling rate          : 48.0 kHz
  • Frame rate           : 1 200.000 FPS (40 SPF)
  • Compression mode         : Lossless
  • Stream size          : 3.62 GiB (5%)
  • Title            : Batman.and.Robin.1997.2160p.BluRay.REMUX.HEVC.DTS-HD.MA.TrueHD.7.1.Atmos-FGT
  • Language           : English
  • Default            : Yes
  • Forced           : No
  • Number of dynamic objects      : 15
  • Bed channel count        : 1 channel
  • Bed channel configuration      : LFE
  • Audio #2
  • ID             : 3
  • Format           : DTS XLL
  • Format/Info          : Digital Theater Systems
  • Commercial name        : DTS-HD Master Audio
  • Codec ID           : A_DTS
  • Duration           : 2 h 4 min
  • Bit rate mode          : Variable
  • Bit rate           : 3 442 kb/s
  • Channel(s)           : 8 channels
  • Channel layout         : C L R LFE Lb Rb Lss Rss
  • Sampling rate          : 48.0 kHz
  • Frame rate           : 93.750 FPS (512 SPF)
  • Bit depth          : 24 bits
  • Compression mode         : Lossless
  • Stream size          : 3.00 GiB (4%)
  • Title            : Batman.and.Robin.1997.2160p.BluRay.REMUX.HEVC.DTS-HD.MA.TrueHD.7.1.Atmos-FGT
  • Language           : English
  • Default            : No
  • Forced           : No
  • Audio #3
  • ID             : 4
  • Format           : AC-3
  • Format/Info          : Audio Coding 3
  • Commercial name        : Dolby Digital
  • Codec ID           : A_AC3
  • Duration           : 2 h 4 min
  • Bit rate mode          : Constant
  • Bit rate           : 640 kb/s
  • Channel(s)           : 6 channels
  • Channel layout         : L R C LFE Ls Rs
  • Sampling rate          : 48.0 kHz
  • Frame rate           : 31.250 FPS (1536 SPF)
  • Bit depth          : 16 bits
  • Compression mode         : Lossy
  • Stream size          : 572 MiB (1%)
  • Title            : Batman.and.Robin.1997.2160p.BluRay.REMUX.HEVC.DTS-HD.MA.TrueHD.7.1.Atmos-FGT
  • Language           : English
  • Service kind         : Complete Main
  • Default            : No
  • Forced           : No
  • Audio #4
  • ID             : 5
  • Format           : AC-3
  • Format/Info          : Audio Coding 3
  • Commercial name        : Dolby Digital
  • Codec ID           : A_AC3
  • Duration           : 2 h 4 min
  • Bit rate mode          : Constant
  • Bit rate           : 448 kb/s
  • Channel(s)           : 6 channels
  • Channel layout         : L R C LFE Ls Rs
  • Sampling rate          : 48.0 kHz
  • Frame rate           : 31.250 FPS (1536 SPF)
  • Bit depth          : 16 bits
  • Compression mode         : Lossy
  • Stream size          : 400 MiB (1%)
  • Title            : Batman.and.Robin.1997.2160p.BluRay.REMUX.HEVC.DTS-HD.MA.TrueHD.7.1.Atmos-FGT
  • Language           : English
  • Service kind         : Complete Main
  • Default            : No
  • Forced           : No
  • Audio #5
  • ID             : 6
  • Format           : AC-3
  • Format/Info          : Audio Coding 3
  • Commercial name        : Dolby Digital
  • Codec ID           : A_AC3
  • Duration           : 2 h 4 min
  • Bit rate mode          : Constant
  • Bit rate           : 448 kb/s
  • Channel(s)           : 6 channels
  • Channel layout         : L R C LFE Ls Rs
  • Sampling rate          : 48.0 kHz
  • Frame rate           : 31.250 FPS (1536 SPF)
  • Bit depth          : 16 bits
  • Compression mode         : Lossy
  • Stream size          : 400 MiB (1%)
  • Title            : Batman.and.Robin.1997.2160p.BluRay.REMUX.HEVC.DTS-HD.MA.TrueHD.7.1.Atmos-FGT
  • Language           : French
  • Service kind         : Complete Main
  • Default            : No
  • Forced           : No
  • Audio #6
  • ID             : 7
  • Format           : AC-3
  • Format/Info          : Audio Coding 3
  • Commercial name        : Dolby Digital
  • Codec ID           : A_AC3
  • Duration           : 2 h 4 min
  • Bit rate mode          : Constant
  • Bit rate           : 448 kb/s
  • Channel(s)           : 6 channels
  • Channel layout         : L R C LFE Ls Rs
  • Sampling rate          : 48.0 kHz
  • Frame rate           : 31.250 FPS (1536 SPF)
  • Bit depth          : 16 bits
  • Compression mode         : Lossy
  • Stream size          : 400 MiB (1%)
  • Title            : Batman.and.Robin.1997.2160p.BluRay.REMUX.HEVC.DTS-HD.MA.TrueHD.7.1.Atmos-FGT
  • Language           : French
  • Service kind         : Complete Main
  • Default            : No
  • Forced           : No
  • Audio #7
  • ID             : 8
  • Format           : AC-3
  • Format/Info          : Audio Coding 3
  • Commercial name        : Dolby Digital
  • Codec ID           : A_AC3
  • Duration           : 2 h 4 min
  • Bit rate mode          : Constant
  • Bit rate           : 448 kb/s
  • Channel(s)           : 6 channels
  • Channel layout         : L R C LFE Ls Rs
  • Sampling rate          : 48.0 kHz
  • Frame rate           : 31.250 FPS (1536 SPF)
  • Bit depth          : 16 bits
  • Compression mode         : Lossy
  • Stream size          : 400 MiB (1%)
  • Title            : Batman.and.Robin.1997.2160p.BluRay.REMUX.HEVC.DTS-HD.MA.TrueHD.7.1.Atmos-FGT
  • Language           : German
  • Service kind         : Complete Main
  • Default            : No
  • Forced           : No
  • Audio #8
  • ID             : 9
  • Format           : AC-3
  • Format/Info          : Audio Coding 3
  • Commercial name        : Dolby Digital
  • Codec ID           : A_AC3
  • Duration           : 2 h 4 min
  • Bit rate mode          : Constant
  • Bit rate           : 448 kb/s
  • Channel(s)           : 6 channels
  • Channel layout         : L R C LFE Ls Rs
  • Sampling rate          : 48.0 kHz
  • Frame rate           : 31.250 FPS (1536 SPF)
  • Bit depth          : 16 bits
  • Compression mode         : Lossy
  • Stream size          : 400 MiB (1%)
  • Title            : Batman.and.Robin.1997.2160p.BluRay.REMUX.HEVC.DTS-HD.MA.TrueHD.7.1.Atmos-FGT
  • Language           : Italian
  • Service kind         : Complete Main
  • Default            : No
  • Forced           : No
  • Audio #9
  • ID             : 10
  • Format           : AC-3
  • Format/Info          : Audio Coding 3
  • Commercial name        : Dolby Digital
  • Codec ID           : A_AC3
  • Duration           : 2 h 4 min
  • Bit rate mode          : Constant
  • Bit rate           : 448 kb/s
  • Channel(s)           : 6 channels
  • Channel layout         : L R C LFE Ls Rs
  • Sampling rate          : 48.0 kHz
  • Frame rate           : 31.250 FPS (1536 SPF)
  • Bit depth          : 16 bits
  • Compression mode         : Lossy
  • Stream size          : 400 MiB (1%)
  • Title            : Batman.and.Robin.1997.2160p.BluRay.REMUX.HEVC.DTS-HD.MA.TrueHD.7.1.Atmos-FGT
  • Language           : Spanish
  • Service kind         : Complete Main
  • Default            : No
  • Forced           : No
  • Audio #10
  • ID             : 11
  • Format           : AC-3
  • Format/Info          : Audio Coding 3
  • Commercial name        : Dolby Digital
  • Codec ID           : A_AC3
  • Duration           : 2 h 4 min
  • Bit rate mode          : Constant
  • Bit rate           : 192 kb/s
  • Channel(s)           : 2 channels
  • Channel layout         : L R
  • Sampling rate          : 48.0 kHz
  • Frame rate           : 31.250 FPS (1536 SPF)
  • Bit depth          : 16 bits
  • Compression mode         : Lossy
  • Stream size          : 171 MiB (0%)
  • Title            : Batman.and.Robin.1997.2160p.BluRay.REMUX.HEVC.DTS-HD.MA.TrueHD.7.1.Atmos-FGT
  • Language           : Chinese
  • Service kind         : Complete Main
  • Default            : No
  • Forced           : No
  • Audio #11
  • ID             : 12
  • Format           : AC-3
  • Format/Info          : Audio Coding 3
  • Commercial name        : Dolby Digital
  • Codec ID           : A_AC3
  • Duration           : 2 h 4 min
  • Bit rate mode          : Constant
  • Bit rate           : 192 kb/s
  • Channel(s)           : 2 channels
  • Channel layout         : L R
  • Sampling rate          : 48.0 kHz
  • Frame rate           : 31.250 FPS (1536 SPF)
  • Bit depth          : 16 bits
  • Compression mode         : Lossy
  • Stream size          : 171 MiB (0%)
  • Title            : Batman.and.Robin.1997.2160p.BluRay.REMUX.HEVC.DTS-HD.MA.TrueHD.7.1.Atmos-FGT
  • Language           : Spanish
  • Service kind         : Complete Main
  • Default            : No
  • Forced           : No
  • Audio #12
  • ID             : 13
  • Format           : AC-3
  • Format/Info          : Audio Coding 3
  • Commercial name        : Dolby Digital
  • Codec ID           : A_AC3
  • Duration           : 2 h 4 min
  • Bit rate mode          : Constant
  • Bit rate           : 192 kb/s
  • Channel(s)           : 2 channels
  • Channel layout         : L R
  • Sampling rate          : 48.0 kHz
  • Frame rate           : 31.250 FPS (1536 SPF)
  • Bit depth          : 16 bits
  • Compression mode         : Lossy
  • Stream size          : 171 MiB (0%)
  • Title            : Batman.and.Robin.1997.2160p.BluRay.REMUX.HEVC.DTS-HD.MA.TrueHD.7.1.Atmos-FGT
  • Language           : Czech
  • Service kind         : Complete Main
  • Default            : No
  • Forced           : No
  • Audio #13
  • ID             : 14
  • Format           : AC-3
  • Format/Info          : Audio Coding 3
  • Commercial name        : Dolby Digital
  • Codec ID           : A_AC3
  • Duration           : 2 h 4 min
  • Bit rate mode          : Constant
  • Bit rate           : 448 kb/s
  • Channel(s)           : 6 channels
  • Channel layout         : L R C LFE Ls Rs
  • Sampling rate          : 48.0 kHz
  • Frame rate           : 31.250 FPS (1536 SPF)
  • Bit depth          : 16 bits
  • Compression mode         : Lossy
  • Stream size          : 400 MiB (1%)
  • Title            : Batman.and.Robin.1997.2160p.BluRay.REMUX.HEVC.DTS-HD.MA.TrueHD.7.1.Atmos-FGT
  • Language           : Hungarian
  • Service kind         : Complete Main
  • Default            : No
  • Forced           : No
  • Audio #14
  • ID             : 15
  • Format           : AC-3
  • Format/Info          : Audio Coding 3
  • Commercial name        : Dolby Digital
  • Codec ID           : A_AC3
  • Duration           : 2 h 4 min
  • Bit rate mode          : Constant
  • Bit rate           : 448 kb/s
  • Channel(s)           : 6 channels
  • Channel layout         : L R C LFE Ls Rs
  • Sampling rate          : 48.0 kHz
  • Frame rate           : 31.250 FPS (1536 SPF)
  • Bit depth          : 16 bits
  • Compression mode         : Lossy
  • Stream size          : 400 MiB (1%)
  • Title            : Batman.and.Robin.1997.2160p.BluRay.REMUX.HEVC.DTS-HD.MA.TrueHD.7.1.Atmos-FGT
  • Language           : Polish
  • Service kind         : Complete Main
  • Default            : No
  • Forced           : No
  • Audio #15
  • ID             : 16
  • Format           : AC-3
  • Format/Info          : Audio Coding 3
  • Commercial name        : Dolby Digital
  • Codec ID           : A_AC3
  • Duration           : 2 h 4 min
  • Bit rate mode          : Constant
  • Bit rate           : 448 kb/s
  • Channel(s)           : 6 channels
  • Channel layout         : L R C LFE Ls Rs
  • Sampling rate          : 48.0 kHz
  • Frame rate           : 31.250 FPS (1536 SPF)
  • Bit depth          : 16 bits
  • Compression mode         : Lossy
  • Stream size          : 400 MiB (1%)
  • Title            : Batman.and.Robin.1997.2160p.BluRay.REMUX.HEVC.DTS-HD.MA.TrueHD.7.1.Atmos-FGT
  • Language           : Russian
  • Service kind         : Complete Main
  • Default            : No
  • Forced           : No
  • Audio #16
  • ID             : 17
  • Format           : AC-3
  • Format/Info          : Audio Coding 3
  • Commercial name        : Dolby Digital
  • Codec ID           : A_AC3
  • Duration           : 2 h 4 min
  • Bit rate mode          : Constant
  • Bit rate           : 448 kb/s
  • Channel(s)           : 6 channels
  • Channel layout         : L R C LFE Ls Rs
  • Sampling rate          : 48.0 kHz
  • Frame rate           : 31.250 FPS (1536 SPF)
  • Bit depth          : 16 bits
  • Compression mode         : Lossy
  • Stream size          : 400 MiB (1%)
  • Title            : Batman.and.Robin.1997.2160p.BluRay.REMUX.HEVC.DTS-HD.MA.TrueHD.7.1.Atmos-FGT
  • Language           : Thai
  • Service kind         : Complete Main
  • Default            : No
  • Forced           : No
  • Audio #17
  • ID             : 18
  • Format           : AC-3
  • Format/Info          : Audio Coding 3
  • Commercial name        : Dolby Digital
  • Codec ID           : A_AC3
  • Duration           : 2 h 4 min
  • Bit rate mode          : Constant
  • Bit rate           : 192 kb/s
  • Channel(s)           : 2 channels
  • Channel layout         : L R
  • Sampling rate          : 48.0 kHz
  • Frame rate           : 31.250 FPS (1536 SPF)
  • Bit depth          : 16 bits
  • Compression mode         : Lossy
  • Stream size          : 171 MiB (0%)
  • Title            : Batman.and.Robin.1997.2160p.BluRay.REMUX.HEVC.DTS-HD.MA.TrueHD.7.1.Atmos-FGT
  • Language           : English
  • Service kind         : Complete Main
  • Default            : No
  • Forced           : No
  • Text #1
  • ID             : 19
  • Format           : UTF-8
  • Codec ID           : S_TEXT/UTF8
  • Codec ID/Info          : UTF-8 Plain Text
  • Duration           : 1 h 57 min
  • Bit rate           : 39 b/s
  • Count of elements        : 1160
  • Stream size          : 33.6 KiB (0%)
  • Title            : English-SRT
  • Language           : English
  • Default            : Yes
  • Forced           : No
  • Text #2
  • ID             : 20
  • Format           : PGS
  • Muxing mode          : zlib
  • Codec ID           : S_HDMV/PGS
  • Codec ID/Info          : Picture based subtitle format used on BDs/HD-DVDs
  • Duration           : 1 h 57 min
  • Bit rate           : 23.2 kb/s
  • Count of elements        : 2562
  • Stream size          : 19.5 MiB (0%)
  • Title            : English-PGS
  • Language           : English
  • Default            : No
  • Forced           : No
  • Text #3
  • ID             : 21
  • Format           : PGS
  • Muxing mode          : zlib
  • Codec ID           : S_HDMV/PGS
  • Codec ID/Info          : Picture based subtitle format used on BDs/HD-DVDs
  • Duration           : 1 h 57 min
  • Bit rate           : 18.6 kb/s
  • Count of elements        : 2072
  • Stream size          : 15.5 MiB (0%)
  • Title            : French-PGS
  • Language           : French
  • Default            : No
  • Forced           : No
  • Text #4
  • ID             : 22
  • Format           : PGS
  • Muxing mode          : zlib
  • Codec ID           : S_HDMV/PGS
  • Codec ID/Info          : Picture based subtitle format used on BDs/HD-DVDs
  • Duration           : 1 h 57 min
  • Bit rate           : 23.7 kb/s
  • Count of elements        : 2622
  • Stream size          : 19.9 MiB (0%)
  • Title            : German-PGS
  • Language           : German
  • Default            : No
  • Forced           : No
  • Text #5
  • ID             : 23
  • Format           : PGS
  • Muxing mode          : zlib
  • Codec ID           : S_HDMV/PGS
  • Codec ID/Info          : Picture based subtitle format used on BDs/HD-DVDs
  • Duration           : 1 h 57 min
  • Bit rate           : 24.7 kb/s
  • Count of elements        : 2608
  • Stream size          : 20.7 MiB (0%)
  • Title            : Italian-PGS
  • Language           : Italian
  • Default            : No
  • Forced           : No
  • Text #6
  • ID             : 24
  • Format           : PGS
  • Muxing mode          : zlib
  • Codec ID           : S_HDMV/PGS
  • Codec ID/Info          : Picture based subtitle format used on BDs/HD-DVDs
  • Duration           : 2 h 3 min
  • Bit rate           : 19.2 kb/s
  • Count of elements        : 2296
  • Stream size          : 16.9 MiB (0%)
  • Title            : Spanish-PGS
  • Language           : Spanish
  • Default            : No
  • Forced           : No
  • Text #7
  • ID             : 25
  • Format           : PGS
  • Muxing mode          : zlib
  • Codec ID           : S_HDMV/PGS
  • Codec ID/Info          : Picture based subtitle format used on BDs/HD-DVDs
  • Duration           : 1 h 57 min
  • Bit rate           : 19.6 kb/s
  • Count of elements        : 2242
  • Stream size          : 16.5 MiB (0%)
  • Title            : Dutch-PGS
  • Language           : Dutch
  • Default            : No
  • Forced           : No
  • Text #8
  • ID             : 26
  • Format           : PGS
  • Muxing mode          : zlib
  • Codec ID           : S_HDMV/PGS
  • Codec ID/Info          : Picture based subtitle format used on BDs/HD-DVDs
  • Duration           : 2 h 3 min
  • Bit rate           : 18.2 kb/s
  • Count of elements        : 2358
  • Stream size          : 16.1 MiB (0%)
  • Title            : Chinese-PGS
  • Language           : Chinese
  • Default            : No
  • Forced           : No
  • Text #9
  • ID             : 27
  • Format           : PGS
  • Muxing mode          : zlib
  • Codec ID           : S_HDMV/PGS
  • Codec ID/Info          : Picture based subtitle format used on BDs/HD-DVDs
  • Duration           : 2 h 4 min
  • Bit rate           : 17.9 kb/s
  • Count of elements        : 2370
  • Stream size          : 15.9 MiB (0%)
  • Title            : Chinese-PGS
  • Language           : Chinese
  • Default            : No
  • Forced           : No
  • Text #10
  • ID             : 28
  • Format           : PGS
  • Muxing mode          : zlib
  • Codec ID           : S_HDMV/PGS
  • Codec ID/Info          : Picture based subtitle format used on BDs/HD-DVDs
  • Duration           : 2 h 3 min
  • Bit rate           : 18.2 kb/s
  • Count of elements        : 2354
  • Stream size          : 16.1 MiB (0%)
  • Title            : Chinese-PGS
  • Language           : Chinese
  • Default            : No
  • Forced           : No
  • Text #11
  • ID             : 29
  • Format           : PGS
  • Muxing mode          : zlib
  • Codec ID           : S_HDMV/PGS
  • Codec ID/Info          : Picture based subtitle format used on BDs/HD-DVDs
  • Duration           : 2 h 3 min
  • Bit rate           : 14.7 kb/s
  • Count of elements        : 1990
  • Stream size          : 13.0 MiB (0%)
  • Title            : Korean-PGS
  • Language           : Korean
  • Default            : No
  • Forced           : No
  • Text #12
  • ID             : 30
  • Format           : PGS
  • Muxing mode          : zlib
  • Codec ID           : S_HDMV/PGS
  • Codec ID/Info          : Picture based subtitle format used on BDs/HD-DVDs
  • Duration           : 2 h 3 min
  • Bit rate           : 20.9 kb/s
  • Count of elements        : 2352
  • Stream size          : 18.5 MiB (0%)
  • Title            : Spanish-PGS
  • Language           : Spanish
  • Default            : No
  • Forced           : No
  • Text #13
  • ID             : 31
  • Format           : PGS
  • Muxing mode          : zlib
  • Codec ID           : S_HDMV/PGS
  • Codec ID/Info          : Picture based subtitle format used on BDs/HD-DVDs
  • Duration           : 2 h 3 min
  • Bit rate           : 11.1 kb/s
  • Count of elements        : 2296
  • Stream size          : 9.85 MiB (0%)
  • Title            : Arabic-PGS
  • Language           : Arabic
  • Default            : No
  • Forced           : No
  • Text #14
  • ID             : 32
  • Format           : PGS
  • Muxing mode          : zlib
  • Codec ID           : S_HDMV/PGS
  • Codec ID/Info          : Picture based subtitle format used on BDs/HD-DVDs
  • Duration           : 1 h 57 min
  • Bit rate           : 19.3 kb/s
  • Count of elements        : 2292
  • Stream size          : 16.1 MiB (0%)
  • Title            : Czech-PGS
  • Language           : Czech
  • Default            : No
  • Forced           : No
  • Text #15
  • ID             : 33
  • Format           : PGS
  • Muxing mode          : zlib
  • Codec ID           : S_HDMV/PGS
  • Codec ID/Info          : Picture based subtitle format used on BDs/HD-DVDs
  • Duration           : 2 h 2 min
  • Bit rate           : 19.3 kb/s
  • Count of elements        : 1842
  • Stream size          : 16.9 MiB (0%)
  • Title            : Danish-PGS
  • Language           : Danish
  • Default            : No
  • Forced           : No
  • Text #16
  • ID             : 34
  • Format           : PGS
  • Muxing mode          : zlib
  • Codec ID           : S_HDMV/PGS
  • Codec ID/Info          : Picture based subtitle format used on BDs/HD-DVDs
  • Duration           : 2 h 2 min
  • Bit rate           : 18.7 kb/s
  • Count of elements        : 2096
  • Stream size          : 16.4 MiB (0%)
  • Title            : Finnish-PGS
  • Language           : Finnish
  • Default            : No
  • Forced           : No
  • Text #17
  • ID             : 35
  • Format           : PGS
  • Muxing mode          : zlib
  • Codec ID           : S_HDMV/PGS
  • Codec ID/Info          : Picture based subtitle format used on BDs/HD-DVDs
  • Duration           : 1 h 57 min
  • Bit rate           : 19.4 kb/s
  • Count of elements        : 2294
  • Stream size          : 16.2 MiB (0%)
  • Title            : Hungarian-PGS
  • Language           : Hungarian
  • Default            : No
  • Forced           : No
  • Text #18
  • ID             : 36
  • Format           : PGS
  • Muxing mode          : zlib
  • Codec ID           : S_HDMV/PGS
  • Codec ID/Info          : Picture based subtitle format used on BDs/HD-DVDs
  • Duration           : 1 h 57 min
  • Bit rate           : 18.6 kb/s
  • Count of elements        : 2292
  • Stream size          : 15.6 MiB (0%)
  • Title            : Norwegian-PGS
  • Language           : Norwegian
  • Default            : No
  • Forced           : No
  • Text #19
  • ID             : 37
  • Format           : PGS
  • Muxing mode          : zlib
  • Codec ID           : S_HDMV/PGS
  • Codec ID/Info          : Picture based subtitle format used on BDs/HD-DVDs
  • Duration           : 1 h 57 min
  • Bit rate           : 18.0 kb/s
  • Count of elements        : 2292
  • Stream size          : 15.1 MiB (0%)
  • Title            : Polish-PGS
  • Language           : Polish
  • Default            : No
  • Forced           : No
  • Text #20
  • ID             : 38
  • Format           : PGS
  • Muxing mode          : zlib
  • Codec ID           : S_HDMV/PGS
  • Codec ID/Info          : Picture based subtitle format used on BDs/HD-DVDs
  • Duration           : 2 h 3 min
  • Bit rate           : 19.0 kb/s
  • Count of elements        : 2256
  • Stream size          : 16.8 MiB (0%)
  • Title            : Russian-PGS
  • Language           : Russian
  • Default            : No
  • Forced           : No
  • Text #21
  • ID             : 39
  • Format           : PGS
  • Muxing mode          : zlib
  • Codec ID           : S_HDMV/PGS
  • Codec ID/Info          : Picture based subtitle format used on BDs/HD-DVDs
  • Duration           : 1 h 57 min
  • Bit rate           : 18.5 kb/s
  • Count of elements        : 1988
  • Stream size          : 15.5 MiB (0%)
  • Title            : Swedish-PGS
  • Language           : Swedish
  • Default            : No
  • Forced           : No
  • Text #22
  • ID             : 40
  • Format           : PGS
  • Muxing mode          : zlib
  • Codec ID           : S_HDMV/PGS
  • Codec ID/Info          : Picture based subtitle format used on BDs/HD-DVDs
  • Duration           : 2 h 3 min
  • Bit rate           : 19.2 kb/s
  • Count of elements        : 2354
  • Stream size          : 16.9 MiB (0%)
  • Title            : Thai-PGS
  • Language           : Thai
  • Default            : No
  • Forced           : No
  • Text #23
  • ID             : 41
  • Format           : PGS
  • Muxing mode          : zlib
  • Codec ID           : S_HDMV/PGS
  • Codec ID/Info          : Picture based subtitle format used on BDs/HD-DVDs
  • Duration           : 37 min 48 s
  • Bit rate           : 182 b/s
  • Count of elements        : 10
  • Stream size          : 50.5 KiB (0%)
  • Title            : French-FORCED-PGS
  • Language           : French
  • Default            : No
  • Forced           : No
  • Text #24
  • ID             : 42
  • Format           : PGS
  • Muxing mode          : zlib
  • Codec ID           : S_HDMV/PGS
  • Codec ID/Info          : Picture based subtitle format used on BDs/HD-DVDs
  • Duration           : 1 h 48 min
  • Bit rate           : 474 b/s
  • Count of elements        : 48
  • Stream size          : 378 KiB (0%)
  • Title            : Spanish-FORCED-PGS
  • Language           : Spanish
  • Default            : No
  • Forced           : No
  • Text #25
  • ID             : 43
  • Format           : PGS
  • Muxing mode          : zlib
  • Codec ID           : S_HDMV/PGS
  • Codec ID/Info          : Picture based subtitle format used on BDs/HD-DVDs
  • Duration           : 1 h 19 min
  • Bit rate           : 355 b/s
  • Count of elements        : 28
  • Stream size          : 206 KiB (0%)
  • Title            : Spanish-FORCED-PGS
  • Language           : Spanish
  • Default            : No
  • Forced           : No
  • Text #26
  • ID             : 44
  • Format           : PGS
  • Muxing mode          : zlib
  • Codec ID           : S_HDMV/PGS
  • Codec ID/Info          : Picture based subtitle format used on BDs/HD-DVDs
  • Duration           : 1 h 48 min
  • Bit rate           : 376 b/s
  • Count of elements        : 40
  • Stream size          : 300 KiB (0%)
  • Title            : Russian-FORCED-PGS
  • Language           : Russian
  • Default            : No
  • Forced           : No
  • Text #27
  • ID             : 45
  • Format           : PGS
  • Muxing mode          : zlib
  • Codec ID           : S_HDMV/PGS
  • Codec ID/Info          : Picture based subtitle format used on BDs/HD-DVDs
  • Duration           : 1 h 48 min
  • Bit rate           : 360 b/s
  • Count of elements        : 48
  • Stream size          : 287 KiB (0%)
  • Title            : Thai-FORCED-PGS
  • Language           : Thai
  • Default            : No
  • Forced           : No
  • Menu
  • 00:00:00.000         : en:Chapter 01
  • 00:03:51.064         : en:Chapter 02
  • 00:09:12.385         : en:Chapter 03
  • 00:13:25.596         : en:Chapter 04
  • 00:15:11.577         : en:Chapter 05
  • 00:19:09.356         : en:Chapter 06
  • 00:21:00.926         : en:Chapter 07
  • 00:24:03.316         : en:Chapter 08
  • 00:26:35.677         : en:Chapter 09
  • 00:29:12.709         : en:Chapter 10
  • 00:31:41.608         : en:Chapter 11
  • 00:33:59.203         : en:Chapter 12
  • 00:38:42.111         : en:Chapter 13
  • 00:39:54.517         : en:Chapter 14
  • 00:45:32.104         : en:Chapter 15
  • 00:48:47.841         : en:Chapter 16
  • 00:50:53.216         : en:Chapter 17
  • 00:54:27.806         : en:Chapter 18
  • 00:56:23.171         : en:Chapter 19
  • 00:59:29.649         : en:Chapter 20
  • 01:01:04.952         : en:Chapter 21
  • 01:06:00.539         : en:Chapter 22
  • 01:07:47.438         : en:Chapter 23
  • 01:12:16.707         : en:Chapter 24
  • 01:15:58.845         : en:Chapter 25
  • 01:20:16.436         : en:Chapter 26
  • 01:22:59.766         : en:Chapter 27
  • 01:25:40.385         : en:Chapter 28
  • 01:28:47.322         : en:Chapter 29
  • 01:32:02.016         : en:Chapter 30
  • 01:33:25.224         : en:Chapter 31
  • 01:35:15.626         : en:Chapter 32
  • 01:36:25.070         : en:Chapter 33
  • 01:41:21.116         : en:Chapter 34
  • 01:44:21.380         : en:Chapter 35
  • 01:48:36.510         : en:Chapter 36
  • 01:49:53.587         : en:Chapter 37
  • 01:51:43.571         : en:Chapter 38
  • 01:53:33.598         : en:Chapter 39
  • 01:56:28.898         : en:Chapter 40
  • 01:57:25.079         : en:Chapter 41
  • 01:59:41.632         : en:Chapter 42

復制代碼







分享到:  QQ好友和群QQ好友和群
收藏收藏
字幕下載網站---點這里進入
回復

使用道具 舉報

0

主題

575

帖子

1213

積分

金牌會員

Rank: 6Rank: 6

積分
1213
2#
發表于 2019-8-7 16:23:08 | 只看該作者
http://www.zfyml.com/suanming/10108.html
http://www.zfyml.com/suanming/10109.html
http://www.zfyml.com/suanming/10110.html
http://www.zfyml.com/suanming/10111.html
http://www.zfyml.com/suanming/10112.html
http://www.zfyml.com/fengshui/zzfs/10113.html
http://www.zfyml.com/fengshui/zzfs/10114.html
http://www.zfyml.com/fengshui/zzfs/10115.html
http://www.zfyml.com/fengshui/zzfs/10116.html
http://www.zfyml.com/fengshui/zzfs/10117.html
http://www.zfyml.com/quming/baby/10118.html
http://www.zfyml.com/quming/baby/10119.html
http://www.zfyml.com/quming/baby/10120.html
http://www.zfyml.com/quming/baby/10121.html
http://www.zfyml.com/quming/baby/10122.html
http://www.zfyml.com/mingli/caiyun/10123.html
http://www.zfyml.com/mingli/caiyun/10124.html
http://www.zfyml.com/mingli/caiyun/10125.html
http://www.zfyml.com/mingli/caiyun/10126.html
http://www.zfyml.com/mingli/caiyun/10127.html
http://www.zfyml.com/mingli/hunyin/10128.html
http://www.zfyml.com/mingli/hunyin/10129.html
http://www.zfyml.com/mingli/hunyin/10130.html
http://www.zfyml.com/mingli/hunyin/10131.html
http://www.zfyml.com/mingli/hunyin/10132.html
http://www.zfyml.com/huangli/10133.html
字幕下載網站---點這里進入
回復

使用道具 舉報

您需要登錄后才可以回帖 登錄 | 立即注冊

本版積分規則

QQ|Archiver|手機版|小黑屋|藍光電影網

GMT+8, 2019-8-19 10:39 , Processed in 0.052698 second(s), 20 queries .

Powered by Discuz! X3.4

© 2001-2017 Comsenz Inc.

快速回復 返回頂部 返回列表
中原风釆22选5走势图