藍光電影網

 找回密碼
 立即注冊

QQ登錄

只需一步,快速開始

搜索
熱搜: 活動 交友 discuz
查看: 321|回復: 0
打印 上一主題 下一主題

[奇幻片] 大偵探皮卡丘 Pokemon.Detective.Pikachu.2019.1080p.3D.BluRay.Half-OU.x264.TrueHD.7.1.Atmos-FGT 18.65GB

[復制鏈接]

已拋錨 成長值: 310

6萬

主題

6萬

帖子

7萬

積分

管理員

Rank: 9Rank: 9Rank: 9

積分
75541
跳轉到指定樓層
1#
發表于 2019-8-21 16:32:36 | 顯示全部樓層 回帖獎勵 |倒序瀏覽 |閱讀模式


譯  名 大偵察皮卡丘 / Detective Pikachu / POKéMON 名偵察皮卡丘(臺) / Pokemon / 名偵察皮卡丘 / 寵物小精靈 / 寵物小精靈之名偵察皮卡丘 / 寵物小精靈真人版 / 精靈寶可夢 / 精靈寶可夢之名偵察皮卡丘 / 精靈寶可夢:大偵察皮卡丘
片  名 Pokémon Detective Pikachu
年  代 2019
產  地 美國 / 日本
類  別 笑劇 / 動畫 / 奇異 / 冒險
語  言 英語 / 日語
上映日期 2019-05-10(美國/中國大陸)
IMDb評分7.0/10 from 22561 users
IMDb鏈接http://www.imdb.com/title/tt5884052
豆瓣評分 6.7/10 from 100671 users
豆瓣鏈接 https://movie.douban.com/subject/26835471/
片  長 104分鐘
導  演 羅伯·萊特曼 Rob Letterman
編  劇 尼科爾·帕爾曼 Nicole Perlman / 亞歷克斯·赫什 Alex Hirsch / Satoshi Tajiri
主  演 瑞恩·雷諾茲 Ryan Reynolds
      賈斯蒂斯·史姑娘 Justice Smith
      凱瑟琳·紐頓 Kathryn Newton
      克里斯·吉爾 Chris Geere
      比爾·奈伊 Bill Nighy
      渡邊謙 Ken Watanabe
      瑞塔·奧拉 Rita Ora
      蘇琪·沃特豪斯 Suki Waterhouse
      卡蘭·索尼 Karan Soni
      普莉安卡·伯福德 Priyanga Burford
      喬丹·朗 Jordan Long
      貝恩·科拉科 Bern Colla?o
      卡迪夫柯萬 Kadiff Kirwan
      奧馬爾·查帕羅 Omar Chaparro
      伯納多·桑托斯 Bernardo Santos
      大谷育江 Ikue Ootani
      露絲·霍洛克斯 Ruth Horrocks
      丹尼爾·厄根 Daniel Eghan
      賈格·帕特爾 Jag Patel
      查利·蕾婭·埃斯奎爾 Charlie Rhea Esquér
      黛博拉·洛克 Deborah Rock
      所羅門·塔伊沃·賈斯提費爾德 Solomon Taiwo Justified
      尼克·歐文福特 Nick Owenford
      凱文·馬塔迪恩 Kevin Matadeen
      Diplo


標  簽 動畫 | 美國 | 童年 | 2019 | 日本 | 笑劇 | 動漫 | 游戲改編

簡  介

  好萊塢真人電影《大偵察皮卡丘》(暫譯)報告了蒂姆·古德曼(賈 斯 提·史姑娘飾) 為尋覓著落不明的父親來到萊姆市,意外與父親的前寶可夢同伴大偵察皮卡丘相遇,并驚奇地發現自己是唯一能聽懂皮卡丘措辭的人類,他們決議組隊踏上揭開真相的刺激冒險之路。探案進程中他們相逢了林林總總 的寶可夢,并意外發現了一個足以撲滅全部寶可夢宇宙的驚天詭計。該電影改編自任天堂3DS同名游戲,由羅伯·萊特曼導演,瑞安·雷諾茲為大偵察皮卡丘配音,賈斯提斯·史姑娘、凱瑟琳·紐頓等主演。

獲獎情況

  第5屆豆瓣電影年度榜單(2018)
  最值得期待的外語電影(提名)



  • Video
  • ID             : 1
  • Format           : AVC
  • Format/Info          : Advanced Video Codec
  • Format profile         : <a href="/cdn-cgi/l/email-protection" class="__cf_email__" data-cfemail="fdb5949a95bdb1c9d3cc">[email protected]</a>
  • Format settings        : CABAC / 3 Ref Frames
  • Format settings, CABAC       : Yes
  • Format settings, Reference frames  : 3 frames
  • Format settings, GOP       : M=1, N=23
  • Codec ID           : V_MPEG4/ISO/AVC
  • Duration           : 1 h 44 min
  • Bit rate           : 16.0 Mb/s
  • Width            : 1 920 pixels
  • Height           : 1 080 pixels
  • Display aspect ratio       : 16:9
  • Frame rate mode        : Constant
  • Frame rate           : 23.976 (24000/1001) FPS
  • Color space          : YUV
  • Chroma subsampling       : 4:2:0
  • Bit depth          : 8 bits
  • Scan type          : Progressive
  • Bits/(Pixel*Frame)       : 0.322
  • Stream size          : 11.6 GiB (62%)
  • Title            : Pokemon.Detective.Pikachu.2019.1080p.3D.BluRay.Half-OU.x264.TrueHD.7.1.Atmos-FGT
  • Writing library        : x264 core 148
  • Encoding settings        : cabac=1 / ref=3 / deblock=1:-1:-1 / analyse=0x3:0 / me=hex / subme=5 / psy=1 / psy_rd=1.00:0.00 / mixed_ref=0 / me_range=16 / chroma_me=1 / trellis=1 / 8x8dct=1 / cqm=0 / deadzone=21,11 / fast_pskip=0 / chroma_qp_offset=0 / threads=24 / lookahead_threads=6 / sliced_threads=0 / nr=0 / decimate=1 / interlaced=0 / bluray_compat=0 / constrained_intra=0 / bframes=2 / b_pyramid=0 / b_adapt=1 / b_bias=0 / direct=1 / weightb=0 / open_gop=0 / weightp=0 / keyint=24 / keyint_min=2 / scenecut=40 / intra_refresh=0 / rc=abr / mbtree=0 / bitrate=16000 / ratetol=1.0 / qcomp=0.60 / qpmin=0 / qpmax=69 / qpstep=4 / ip_ratio=1.40 / pb_ratio=1.30 / aq=1:1.00
  • Default            : Yes
  • Forced           : No
  • Color range          : Limited
  • Color primaries        : BT.709
  • Transfer characteristics     : BT.709
  • Matrix coefficients        : BT.709
  • Audio #1
  • ID             : 2
  • Format           : MLP FBA 16-ch
  • Format/Info          : Meridian Lossless Packing FBA with 16-channel presentation
  • Commercial name        : Dolby TrueHD with Dolby Atmos
  • Codec ID           : A_TRUEHD
  • Duration           : 1 h 44 min
  • Bit rate mode          : Variable
  • Bit rate           : 3 234 kb/s
  • Maximum bit rate         : 6 081 kb/s
  • Channel(s)           : 8 channels
  • Channel layout         : L R C LFE Ls Rs Lb Rb
  • Sampling rate          : 48.0 kHz
  • Frame rate           : 1 200.000 FPS (40 SPF)
  • Compression mode         : Lossless
  • Stream size          : 2.36 GiB (13%)
  • Title            : Pokemon.Detective.Pikachu.2019.1080p.3D.BluRay.Half-OU.x264.TrueHD.7.1.Atmos-FGT
  • Language           : English
  • Default            : Yes
  • Forced           : No
  • Number of dynamic objects      : 15
  • Bed channel count        : 1 channel
  • Bed channel configuration      : LFE
  • Audio #2
  • ID             : 3
  • Format           : AC-3
  • Format/Info          : Audio Coding 3
  • Commercial name        : Dolby Digital
  • Codec ID           : A_AC3
  • Duration           : 1 h 44 min
  • Bit rate mode          : Constant
  • Bit rate           : 640 kb/s
  • Channel(s)           : 6 channels
  • Channel layout         : L R C LFE Ls Rs
  • Sampling rate          : 48.0 kHz
  • Frame rate           : 31.250 FPS (1536 SPF)
  • Bit depth          : 16 bits
  • Compression mode         : Lossy
  • Stream size          : 478 MiB (3%)
  • Title            : Pokemon.Detective.Pikachu.2019.1080p.3D.BluRay.Half-OU.x264.TrueHD.7.1.Atmos-FGT
  • Language           : English
  • Service kind         : Complete Main
  • Default            : No
  • Forced           : No
  • Audio #3
  • ID             : 4
  • Format           : AC-3
  • Format/Info          : Audio Coding 3
  • Commercial name        : Dolby Digital
  • Codec ID           : A_AC3
  • Duration           : 1 h 44 min
  • Bit rate mode          : Constant
  • Bit rate           : 448 kb/s
  • Channel(s)           : 6 channels
  • Channel layout         : L R C LFE Ls Rs
  • Sampling rate          : 48.0 kHz
  • Frame rate           : 31.250 FPS (1536 SPF)
  • Bit depth          : 16 bits
  • Compression mode         : Lossy
  • Stream size          : 335 MiB (2%)
  • Title            : Pokemon.Detective.Pikachu.2019.1080p.3D.BluRay.Half-OU.x264.TrueHD.7.1.Atmos-FGT
  • Language           : English
  • Service kind         : Complete Main
  • Default            : No
  • Forced           : No
  • Audio #4
  • ID             : 5
  • Format           : AC-3
  • Format/Info          : Audio Coding 3
  • Commercial name        : Dolby Digital
  • Codec ID           : A_AC3
  • Duration           : 1 h 44 min
  • Bit rate mode          : Constant
  • Bit rate           : 448 kb/s
  • Channel(s)           : 6 channels
  • Channel layout         : L R C LFE Ls Rs
  • Sampling rate          : 48.0 kHz
  • Frame rate           : 31.250 FPS (1536 SPF)
  • Bit depth          : 16 bits
  • Compression mode         : Lossy
  • Stream size          : 335 MiB (2%)
  • Title            : Pokemon.Detective.Pikachu.2019.1080p.3D.BluRay.Half-OU.x264.TrueHD.7.1.Atmos-FGT
  • Language           : French
  • Service kind         : Complete Main
  • Default            : No
  • Forced           : No
  • Audio #5
  • ID             : 6
  • Format           : DTS XLL
  • Format/Info          : Digital Theater Systems
  • Commercial name        : DTS-HD Master Audio
  • Codec ID           : A_DTS
  • Duration           : 1 h 44 min
  • Bit rate mode          : Variable
  • Bit rate           : 2 236 kb/s
  • Channel(s)           : 6 channels
  • Channel layout         : C L R Ls Rs LFE
  • Sampling rate          : 48.0 kHz
  • Frame rate           : 93.750 FPS (512 SPF)
  • Bit depth          : 16 bits
  • Compression mode         : Lossless
  • Stream size          : 1.63 GiB (9%)
  • Title            : Pokemon.Detective.Pikachu.2019.1080p.3D.BluRay.Half-OU.x264.TrueHD.7.1.Atmos-FGT
  • Language           : German
  • Default            : No
  • Forced           : No
  • Audio #6
  • ID             : 7
  • Format           : AC-3
  • Format/Info          : Audio Coding 3
  • Commercial name        : Dolby Digital
  • Codec ID           : A_AC3
  • Duration           : 1 h 44 min
  • Bit rate mode          : Constant
  • Bit rate           : 192 kb/s
  • Channel(s)           : 2 channels
  • Channel layout         : L R
  • Sampling rate          : 48.0 kHz
  • Frame rate           : 31.250 FPS (1536 SPF)
  • Bit depth          : 16 bits
  • Compression mode         : Lossy
  • Stream size          : 143 MiB (1%)
  • Title            : Pokemon.Detective.Pikachu.2019.1080p.3D.BluRay.Half-OU.x264.TrueHD.7.1.Atmos-FGT
  • Language           : German
  • Service kind         : Complete Main
  • Default            : No
  • Forced           : No
  • Audio #7
  • ID             : 8
  • Format           : AC-3
  • Format/Info          : Audio Coding 3
  • Commercial name        : Dolby Digital
  • Codec ID           : A_AC3
  • Duration           : 1 h 44 min
  • Bit rate mode          : Constant
  • Bit rate           : 448 kb/s
  • Channel(s)           : 6 channels
  • Channel layout         : L R C LFE Ls Rs
  • Sampling rate          : 48.0 kHz
  • Frame rate           : 31.250 FPS (1536 SPF)
  • Bit depth          : 16 bits
  • Compression mode         : Lossy
  • Stream size          : 335 MiB (2%)
  • Title            : Pokemon.Detective.Pikachu.2019.1080p.3D.BluRay.Half-OU.x264.TrueHD.7.1.Atmos-FGT
  • Language           : Chinese
  • Service kind         : Complete Main
  • Default            : No
  • Forced           : No
  • Audio #8
  • ID             : 9
  • Format           : AC-3
  • Format/Info          : Audio Coding 3
  • Commercial name        : Dolby Digital
  • Codec ID           : A_AC3
  • Duration           : 1 h 44 min
  • Bit rate mode          : Constant
  • Bit rate           : 448 kb/s
  • Channel(s)           : 6 channels
  • Channel layout         : L R C LFE Ls Rs
  • Sampling rate          : 48.0 kHz
  • Frame rate           : 31.250 FPS (1536 SPF)
  • Bit depth          : 16 bits
  • Compression mode         : Lossy
  • Stream size          : 335 MiB (2%)
  • Title            : Pokemon.Detective.Pikachu.2019.1080p.3D.BluRay.Half-OU.x264.TrueHD.7.1.Atmos-FGT
  • Language           : Korean
  • Service kind         : Complete Main
  • Default            : No
  • Forced           : No
  • Audio #9
  • ID             : 10
  • Format           : AC-3
  • Format/Info          : Audio Coding 3
  • Commercial name        : Dolby Digital
  • Codec ID           : A_AC3
  • Duration           : 1 h 44 min
  • Bit rate mode          : Constant
  • Bit rate           : 448 kb/s
  • Channel(s)           : 6 channels
  • Channel layout         : L R C LFE Ls Rs
  • Sampling rate          : 48.0 kHz
  • Frame rate           : 31.250 FPS (1536 SPF)
  • Bit depth          : 16 bits
  • Compression mode         : Lossy
  • Stream size          : 335 MiB (2%)
  • Title            : Pokemon.Detective.Pikachu.2019.1080p.3D.BluRay.Half-OU.x264.TrueHD.7.1.Atmos-FGT
  • Language           : Spanish
  • Service kind         : Complete Main
  • Default            : No
  • Forced           : No
  • Audio #10
  • ID             : 11
  • Format           : AC-3
  • Format/Info          : Audio Coding 3
  • Commercial name        : Dolby Digital
  • Codec ID           : A_AC3
  • Duration           : 1 h 44 min
  • Bit rate mode          : Constant
  • Bit rate           : 448 kb/s
  • Channel(s)           : 6 channels
  • Channel layout         : L R C LFE Ls Rs
  • Sampling rate          : 48.0 kHz
  • Frame rate           : 31.250 FPS (1536 SPF)
  • Bit depth          : 16 bits
  • Compression mode         : Lossy
  • Stream size          : 335 MiB (2%)
  • Title            : Pokemon.Detective.Pikachu.2019.1080p.3D.BluRay.Half-OU.x264.TrueHD.7.1.Atmos-FGT
  • Language           : Russian
  • Service kind         : Complete Main
  • Default            : No
  • Forced           : No
  • Audio #11
  • ID             : 12
  • Format           : AC-3
  • Format/Info          : Audio Coding 3
  • Commercial name        : Dolby Digital
  • Codec ID           : A_AC3
  • Duration           : 1 h 44 min
  • Bit rate mode          : Constant
  • Bit rate           : 448 kb/s
  • Channel(s)           : 6 channels
  • Channel layout         : L R C LFE Ls Rs
  • Sampling rate          : 48.0 kHz
  • Frame rate           : 31.250 FPS (1536 SPF)
  • Bit depth          : 16 bits
  • Compression mode         : Lossy
  • Stream size          : 335 MiB (2%)
  • Title            : Pokemon.Detective.Pikachu.2019.1080p.3D.BluRay.Half-OU.x264.TrueHD.7.1.Atmos-FGT
  • Language           : Thai
  • Service kind         : Complete Main
  • Default            : No
  • Forced           : No
  • Text #1
  • ID             : 13
  • Format           : PGS
  • Muxing mode          : zlib
  • Codec ID           : S_HDMV/PGS
  • Codec ID/Info          : Picture based subtitle format used on BDs/HD-DVDs
  • Duration           : 1 h 36 min
  • Bit rate           : 56.1 kb/s
  • Count of elements        : 3481
  • Stream size          : 38.8 MiB (0%)
  • Title            : English-PGS
  • Language           : English
  • Default            : Yes
  • Forced           : No
  • Text #2
  • ID             : 14
  • Format           : PGS
  • Muxing mode          : zlib
  • Codec ID           : S_HDMV/PGS
  • Codec ID/Info          : Picture based subtitle format used on BDs/HD-DVDs
  • Duration           : 1 h 42 min
  • Bit rate           : 40.2 kb/s
  • Count of elements        : 2704
  • Stream size          : 29.5 MiB (0%)
  • Title            : French-PGS
  • Language           : French
  • Default            : No
  • Forced           : No
  • Text #3
  • ID             : 15
  • Format           : PGS
  • Muxing mode          : zlib
  • Codec ID           : S_HDMV/PGS
  • Codec ID/Info          : Picture based subtitle format used on BDs/HD-DVDs
  • Duration           : 1 h 40 min
  • Bit rate           : 52.1 kb/s
  • Count of elements        : 3472
  • Stream size          : 37.3 MiB (0%)
  • Title            : German-PGS
  • Language           : German
  • Default            : No
  • Forced           : No
  • Text #4
  • ID             : 16
  • Format           : PGS
  • Muxing mode          : zlib
  • Codec ID           : S_HDMV/PGS
  • Codec ID/Info          : Picture based subtitle format used on BDs/HD-DVDs
  • Duration           : 1 h 43 min
  • Bit rate           : 44.1 kb/s
  • Count of elements        : 3016
  • Stream size          : 32.6 MiB (0%)
  • Title            : Chinese-PGS
  • Language           : Chinese
  • Default            : No
  • Forced           : No
  • Text #5
  • ID             : 17
  • Format           : PGS
  • Muxing mode          : zlib
  • Codec ID           : S_HDMV/PGS
  • Codec ID/Info          : Picture based subtitle format used on BDs/HD-DVDs
  • Duration           : 1 h 43 min
  • Bit rate           : 44.1 kb/s
  • Count of elements        : 3020
  • Stream size          : 32.6 MiB (0%)
  • Title            : Chinese-PGS
  • Language           : Chinese
  • Default            : No
  • Forced           : No
  • Text #6
  • ID             : 18
  • Format           : PGS
  • Muxing mode          : zlib
  • Codec ID           : S_HDMV/PGS
  • Codec ID/Info          : Picture based subtitle format used on BDs/HD-DVDs
  • Duration           : 1 h 36 min
  • Bit rate           : 33.1 kb/s
  • Count of elements        : 2866
  • Stream size          : 22.8 MiB (0%)
  • Title            : Korean-PGS
  • Language           : Korean
  • Default            : No
  • Forced           : No
  • Text #7
  • ID             : 19
  • Format           : PGS
  • Muxing mode          : zlib
  • Codec ID           : S_HDMV/PGS
  • Codec ID/Info          : Picture based subtitle format used on BDs/HD-DVDs
  • Duration           : 1 h 42 min
  • Bit rate           : 46.6 kb/s
  • Count of elements        : 2994
  • Stream size          : 34.2 MiB (0%)
  • Title            : Spanish-PGS
  • Language           : Spanish
  • Default            : No
  • Forced           : No
  • Text #8
  • ID             : 20
  • Format           : PGS
  • Muxing mode          : zlib
  • Codec ID           : S_HDMV/PGS
  • Codec ID/Info          : Picture based subtitle format used on BDs/HD-DVDs
  • Duration           : 1 h 42 min
  • Bit rate           : 42.5 kb/s
  • Count of elements        : 2835
  • Stream size          : 31.2 MiB (0%)
  • Title            : Danish-PGS
  • Language           : Danish
  • Default            : No
  • Forced           : No
  • Text #9
  • ID             : 21
  • Format           : PGS
  • Muxing mode          : zlib
  • Codec ID           : S_HDMV/PGS
  • Codec ID/Info          : Picture based subtitle format used on BDs/HD-DVDs
  • Duration           : 1 h 42 min
  • Bit rate           : 40.7 kb/s
  • Count of elements        : 2994
  • Stream size          : 29.9 MiB (0%)
  • Title            : Finnish-PGS
  • Language           : Finnish
  • Default            : No
  • Forced           : No
  • Text #10
  • ID             : 22
  • Format           : PGS
  • Muxing mode          : zlib
  • Codec ID           : S_HDMV/PGS
  • Codec ID/Info          : Picture based subtitle format used on BDs/HD-DVDs
  • Duration           : 1 h 42 min
  • Bit rate           : 40.6 kb/s
  • Count of elements        : 2873
  • Stream size          : 29.8 MiB (0%)
  • Title            : Norwegian-PGS
  • Language           : Norwegian
  • Default            : No
  • Forced           : No
  • Text #11
  • ID             : 23
  • Format           : PGS
  • Muxing mode          : zlib
  • Codec ID           : S_HDMV/PGS
  • Codec ID/Info          : Picture based subtitle format used on BDs/HD-DVDs
  • Duration           : 1 h 36 min
  • Bit rate           : 46.2 kb/s
  • Count of elements        : 3011
  • Stream size          : 31.8 MiB (0%)
  • Title            : Russian-PGS
  • Language           : Russian
  • Default            : No
  • Forced           : No
  • Text #12
  • ID             : 24
  • Format           : PGS
  • Muxing mode          : zlib
  • Codec ID           : S_HDMV/PGS
  • Codec ID/Info          : Picture based subtitle format used on BDs/HD-DVDs
  • Duration           : 1 h 42 min
  • Bit rate           : 39.0 kb/s
  • Count of elements        : 2911
  • Stream size          : 28.6 MiB (0%)
  • Title            : Swedish-PGS
  • Language           : Swedish
  • Default            : No
  • Forced           : No
  • Text #13
  • ID             : 25
  • Format           : PGS
  • Muxing mode          : zlib
  • Codec ID           : S_HDMV/PGS
  • Codec ID/Info          : Picture based subtitle format used on BDs/HD-DVDs
  • Duration           : 1 h 36 min
  • Bit rate           : 44.3 kb/s
  • Count of elements        : 2991
  • Stream size          : 30.5 MiB (0%)
  • Title            : Thai-PGS
  • Language           : Thai
  • Default            : No
  • Forced           : No
  • Menu
  • 00:00:00.000         : en:Chapter 01
  • 00:06:55.957         : en:Chapter 02
  • 00:15:36.685         : en:Chapter 03
  • 00:24:06.445         : en:Chapter 04
  • 00:31:00.108         : en:Chapter 05
  • 00:40:45.943         : en:Chapter 06
  • 00:49:57.077         : en:Chapter 07
  • 00:59:49.669         : en:Chapter 08
  • 01:09:22.783         : en:Chapter 09
  • 01:16:59.990         : en:Chapter 10
  • 01:23:20.829         : en:Chapter 11
  • 01:30:55.366         : en:Chapter 12
  • 01:35:49.160         : en:Chapter 13

復制代碼









分享到:  QQ好友和群QQ好友和群
收藏收藏
字幕下載網站---點這里進入
回復

使用道具 舉報

您需要登錄后才可以回帖 登錄 | 立即注冊

本版積分規則

QQ|Archiver|手機版|小黑屋|藍光電影網 ( 滇ICP備18001150號-1 )

GMT+8, 2020-8-11 12:24 , Processed in 0.110646 second(s), 24 queries .

Powered by Discuz! X3.4

© 2001-2017 Comsenz Inc.

快速回復 返回頂部 返回列表
中原风釆22选5走势图